вход на сайт

Имя пользователя :
Пароль :

Восстановление пароля Регистрация
Битва в пустыне / The Objective (Дэниэл Мирик, ужасы, фантастика, триллер, 2008) [HDRip, Профессиональный (многоголосый, закадровый)]
Рейтинг:
(голосов: 1)



[img]{THEME}/images/logopost.png[/img]



•Битва в пустыне / The Objective •
♥ Год выпуска: 2008
♥ Страна: США, Марокко
♥ Производство: Jaz Films, Kasbah-Film Tanger
♥ Жанр: ужасы, фантастика, триллер

♥ Режиссёр: Дэниэл Мирик
♥ В ролях: Йонас Болл, Мэттью Р. Андерсон, Джон Уэртас, Майкл С. Уильямс, Сэм Хантер, Джефф Прюэтт, Кенни Тейлор, Чемс-Эддин Зинун

♥ Перевод: Профессиональный (многоголосый, закадровый)
♥ Субтитры: Отсутствуют

♥ Описание: Афганистан, ноябрь 2001. Два месяца спустя после нападений на всемирный торговый центр. Элитный отряд спецподразделения посылают в Афганскую пустыню, для того, чтобы они вступили в контакт с человеком, известным как «Мохаммед Абан». Однако вместо запланированной встречи, они столкнулись с чем-то неожиданным… С таким, ко встрече к чему их не подготовило даже элитное обучение.


MediaInfo ▼
TextGeneral
Complete name : C:Bitva.v.pustyne.2008.P.HDRip.avi
Format : AVI
Format/Info : Audio Video Interleave
File size : 1.46 GiB
Duration : 1h 30mn
Overall bit rate : 2 317 Kbps
Writing application : VirtualDubMod 1.5.10.3 | www.virtualdub-fr.org || (build 2550/release)
Writing library : VirtualDubMod build 2550/release
Video #0
ID : 0
Format : MPEG-4 Visual
Format profile : Advanced [email protected]
Format settings, BVOP : 1
Format settings, QPel : No
Format settings, GMC : No warppoints
Format settings, Matrix : Custom
Codec ID : XVID
Codec ID/Hint : XviD
Duration : 1h 30mn
Bit rate : 1 923 Kbps
Width : 720 pixels
Height : 400 pixels
Display aspect ratio : 16:9
Frame rate : 23.976 fps
Color space : YUV
Chroma subsampling : 4:2:0
Bit depth : 8 bits
Scan type : Progressive
Compression mode : Lossy
Bits/(Pixel*Frame) : 0.279
Stream size : 1.21 GiB (83%)
Writing library : XviD 65
Audio #1
ID : 1
Format : AC-3
Format/Info : Audio Coding 3
Mode extension : CM (complete main)
Codec ID : 2000
Duration : 1h 30mn
Bit rate mode : Constant
Bit rate : 384 Kbps
Channel(s) : 6 channels
Channel positions : Front: L C R, Side: L R, LFE
Sampling rate : 48.0 KHz
Bit depth : 16 bits
Compression mode : Lossy
Stream size : 247 MiB (17%)
Alignment : Split accross interleaves
Interleave, duration : 42 ms (1.00 video frame)
Interleave, preload duration : 500 ms

♥ Качество: HDRip
♥ Продолжительность: 01:30:01

♥ Формат: AVI
♥ Видео кодек: XviD
♥ Аудио кодек: AC3
♥ Видео: 720x400 (16:9), 23.976 fps, XviD ~ 1923 kbps avg, 0.279 bit/pixel
♥ Аудио1: 48 kHz, Audio Coding 3/6 ch,(L C R,L R + LFE), 384.00 kbps

♥ Дата премьеры (мир): 24 апреля 2008


Релиз Группы "Virtus"

Стол заказов / Вступление в РГ / Благодарности, критика и другое


01d5f452053def7f81fbee09334dc5817c98bd25Битва в пустыне / The Objective (Дэниэл Мирик, ужасы, фантастика, триллер, 2008) [HDRip, Профессиональный (многоголосый, закадровый)] Битва в пустыне / The Objective (Дэниэл Мирик, ужасы, фантастика, триллер, 2008) [HDRip, Профессиональный (многоголосый, закадровый)] " />

Аплоадер: Админ, дата: 27-12-2012, 13:55, торрент скачан: 359 раз

Понравилась раздача? Посмотрите эти:
  • Погнали! / Getaway (Кортни Соломон, Боевик, Криминал, 2013) [HDRip, Професс ...
  • Погнали! / Getaway (Кортни Соломон, Боевик,Криминал, 2013) [HDRip, Професси ...
  • Орудие смерти / A-i-deul... (Ли Гю Ман, Триллер, криминал, 2011) [DVDRip, П ...
  • Верное дельце / Une pure affaire (Александр Коффре, Боевик, Комедия, Кримин ...
  • Мои герои / Mes heros (Эрик Беснард, комедия, 2012) [HDRip, Профессиональны ...
  • Мужество / Wymyk (Грег Зглински, драма, 2011) [DVDRip, Любительский (одного ...
  • Ночь тамплиера / Night of the Templar (Пол Сэмпсон, Ужасы, фантастика, боев ...
  • Звук моего голоса / Sound of My Voice (Зал Батманглидж, триллер, драма, 201 ...
  • 23:59 / 23:59 (Гилберт Чан, Ужасы, 2011) [HDRip, Любительский (одноголосый ...
  • Безопасность не гарантируется / Safety Not Guaranteed (Колин Треворроу, фан ...
  • В хлам / Smashed (Джеймс Понсольдт, Драма, комедия, 2012) [HDRip, Профессио ...
  • Битва в пустыне / The Objective (Дэниэл Мирик, ужасы, фантастика, триллер, ...
  • Плохая актриса / Bad Actress (Роберт Ли Кинг, комедия, 2011) [DVDRip, Профе ...
  • Супер циклон / Super Cyclone (Лиз Адамс / Liz Adams, боевик, 2012) [HDRip, ...
  • Захват / Carjacked (Джон Бонито, триллер, 2011)[BDRip, Профессиональный (мн ...
  • Коллекционер 2 / The Collection (Маркус Данстэн, ужасы, боевик, триллер , 2 ...
  • Tank Feat. T.I. & Kris Stephens / Compliments [2012, RnB,Hip-Hop, HDRip]
  • Буря в Арктике / Arctic Blast (Брайан Тренчард-Смит, фантастика, триллер, 2 ...
  • Трус / Faintheart (Вито Рокко, Комедия, 2008) [BDRip, Профессиональный (дву ...
  • Супершторм в Сиэтле / Seattle Superstorm (Джейсон Бурк, фантастика, боевик ...
  • Девушки в опасности / Damsels in Distress (Уит Стиллман, драма, мелодрама, ...
  • Глаз шторма / The Eye of the Storm (Фред Скеписи, Драма, 2011) [HDRip, Проф ...
  • Искажение / Skew (Сейв Челенз, ужасы, триллер, 2011) [HDRip, Профессиональн ...
  • Битва в пустыне / The Objective (Дэниэл Мирик, Ужасы, Фантастика, Триллер, ...
  • За гранью / Beyond (Йозеф Руснак, триллер, 2012) [HDRip, Профессиональный ...
  • Информация
    Посетители, находящиеся в группе Гости, не могут оставлять комментарии к данной публикации.