вход на сайт

Имя пользователя :
Пароль :

Восстановление пароля Регистрация
Ужасно медленный убийца с крайне неэффективным оружием / The Horribly Slow Murderer with the Extremely Inefficient Weapon (Ричард Гэйл, Короткометражка, ужасы, комедия, 2008) [HDRip, Любительский (многоголосый закадровый)+Оригинал]
Рейтинг:
(голосов: 1)



[img]{THEME}/images/logopost.png[/img]



♠ Ужасно медленный убийца с крайне неэффективным оружием ♠
« The Horribly Slow Murderer with the Extremely Inefficient Weapon »


♠Год выпуска: 2008
♠Страна: США
♠Производство: Sky Cinema
♠Жанр: Короткометражка, ужасы, комедия

♠Режиссёр: Ричард Гэйл
♠В ролях: Пол Клеменс, Брайан Роэн, Фэй Като и другие.
♠Перевод: Любительский (многоголосый закадровый) + Оригинал
♠Субтитры: Отсутствуют

♠Описание ▼ Можно умереть за долю секунды. Можно умирать долго и мучительно от страшной болезни, на руках у родственников. Случайная авария может лишить вас жизни. Загадочный зомби-вирус превратит вас в ходячий труп, что само по себе смерть. Или он превратит в зомби ваших соседей и они перегрызут вам горло. Это уж как повезет. Нашествие инопланетян с планеты Железяка, восстание злобных шахтеров и клонирование динозавров, парочка ядерных грибов у вас на заднем дворе и нападение диких зверей. У человека огромный выбор, как ему умереть. Не говоря уже о смерти от старости в роскошном особняке с кучей жаждущих наследства товарищей. Все это может казаться абсурдным, глупым, страшным и смешным. Но ничто не сравнится со смертью от рук ужасно медленного убийцы с крайне неэффективным оружием.
— Специальный приз жюри на Austin Fantastic Fest
— Приз за Лучший короткометражный фильм на Fant-Asia Film Festival
— Приз зрительских симпатий и гран-при за лучший короткометражный фильм на Puchon International Fantastic Film Festival
— Приз «Золотой Глибб» на Weekend of Fear, Nuremberg, Germany


♠Рейтинг:♠Качество: HDRip
♠Продолжительность: 00:10:16 час.

♠Формат: MP4
♠Видео кодек: H.264
♠Аудио кодек: MPEG-3
♠Видео: AVC. 1280Х720, 16:9, 23.976 fps, 1 945 Kbps
♠Аудио #1: MPEG Layer 3. 44.1 KHz, 160 Kbps, 2 channels
♠Аудио #2: MPEG Layer 3. 44.1 KHz, 160 Kbps, 2 channels

♠Премьера(мир): 18 сентября 2008

MediaInfo ▼
Text
Общее
Полное имя : D:The Horribly Slow Murderer.mp4
Формат : MPEG-4
Профиль формата : Base Media
Идентификатор кодека : isom
Размер файла : 167 Мбайт
Продолжительность : 10 м.
Режим общего битрейта : Переменный
Общий поток : 2269 Кбит/сек
Дата кодирования : UTC 2010-12-07 22:34:22
Дата пометки : UTC 2010-12-07 22:34:22

Видео
Идентификатор : 1
Формат : AVC
Формат/Информация : Advanced Video Codec
Профиль формата : [email protected]
Параметр CABAC формата : Да
Параметр ReFrames формата : 3 кадра
Идентификатор кодека : avc1
Идентификатор кодека/Информация : Advanced Video Coding
Продолжительность : 10 м.
Вид битрейта : Переменный
Битрейт : 1945 Кбит/сек
Максимальный битрейт : 40,0 Мбит/сек
Ширина : 1280 пикселей
Высота : 720 пикселей
Соотношение сторон : 16:9
Режим частоты кадров : Постоянный
Частота кадров : 23,976 кадра/сек
Цветовое пространство : YUV
Субдискретизация насыщенности : 4:2:0
Битовая глубина : 8 бит
Тип развёртки : Прогрессивная
Бит/(Пиксели*Кадры) : 0.088
Размер потока : 143 Мбайт (86%)
Заголовок : Imported with GPAC 0.4.6-DEV (internal rev. 5)
Дата кодирования : UTC 2010-12-07 22:34:22
Дата пометки : UTC 2010-12-07 22:34:26

Аудио #1
Идентификатор : 2
Формат : MPEG Audio
Версия формата : Version 1
Профиль формата : Layer 3
Идентификатор кодека : 6B
Продолжительность : 10 м.
Вид битрейта : Постоянный
Битрейт : 160 Кбит/сек
Максимальный битрейт : 167 Кбит/сек
Каналы : 2 канала
Частота : 44,1 КГц
Метод сжатия : С потерями
Размер потока : 11,8 Мбайт (7%)
Заголовок : Imported with GPAC 0.4.6-DEV (internal rev. 5)
Язык : Russian
Дата кодирования : UTC 2010-12-07 22:34:26
Дата пометки : UTC 2010-12-07 22:34:26

Аудио #2
Идентификатор : 3
Формат : MPEG Audio
Версия формата : Version 1
Профиль формата : Layer 3
Режим : Joint stereo
Расширение режима : MS Stereo
Идентификатор кодека : 6B
Продолжительность : 10 м.
Duration_FirstFrame : -17 мс.
Вид битрейта : Постоянный
Битрейт : 160 Кбит/
1a4107d48482aadf567f58837648daee8c2de0feУжасно медленный убийца с крайне неэффективным оружием / The Horribly Slow Murderer with the Extremely Inefficient Weapon (Ричард Гэйл, Короткометражка, ужасы, комедия, 2008) [HDRip, Любительский (многоголосый закадровый)+Оригинал] Ужасно медленный убийца с крайне неэффективным оружием / The Horribly Slow Murderer with the Extremely Inefficient Weapon (Ричард Гэйл, Короткометражка, ужасы, комедия, 2008) [HDRip, Любительский (многоголосый закадровый)+Оригинал] " />

Аплоадер: Админ, дата: 22-12-2012, 01:01, торрент скачан: 359 раз

Понравилась раздача? Посмотрите эти:
  • Анита Цой / Береги меня [2013, Pop, HDRip]
  • Elvira T / Море [2013, Pop, HDRip]
  • Elvira T / Одержима [2013, Pop, HDRip]
  • Mario feat. Nicki Minaj / Somebody Else [2013, Hip-Hop, Rap, MasterRip]
  • Русский Размер / До тебя [2012, Pop, HDRip]
  • Герои / Километры [2012, Pop, HDRip]
  • Герои / Закаты алые [2012, Pop, WebRip]
  • Miranda Cosgrove / Dancing Crazy [2011, Pop, WEB-DLRip 720p]
  • Madcon / The Signal [2013, Hip-Hop, HDRip]
  • Elvira T / Всё Решено [2011, Pop, HDRip]
  • Yandel / Hable De Ti (La Leyenda) [2013, Dance, Reggaeton, Master]
  • Avril Lavigne / Smile [2011, Pop, HDRip]
  • Bruno Mars / Grenade [2010, R&B, Master]
  • Charli XCX / Superlove [2013, Pop, Master]
  • Christina Aguilera / Not Myself Tonight [2010, Dance, Pop, Master]
  • Ariana Grande - ft. Mac Miller / The Way [2013, Pop, WEB-DLRip 1080p]
  • Принуждение к прививке / Impf-Zwang (документальный, 2012) [HD 720p, Профес ...
  • Ужасно медленный убийца с крайне неэффективным оружием / The Horribly Slow ...
  • Чемпионат Англии 2012-2013 / 18-й тур / Челси - Астон Вилла / Спорт 1 [23.1 ...
  • Нонито Донэйр - Хорхе Арсе / Nonito Donaire vs Jorge Arce [Бокс, 15.12.2012 ...
  • Бог любви / God of Love (Люк Мэзени, Короткометражка, фэнтези, комедия, мел ...
  • Заместитель / Il supplente (Андреа Жублин, Короткометражка, комедия, 2007) ...
  • Экзоиды / Exoids (Аристоменис Тсирбас, мультфильм, короткометражка, фантаст ...
  • Апрель / Avril (Отар Иоселиани, короткометражка, драма, мелодрама, комедия, ...
  • Бюро находок : Потерянный и найденный / Lost and Found (Филип Хант, коротко ...
  • Информация
    Посетители, находящиеся в группе Гости, не могут оставлять комментарии к данной публикации.