вход на сайт

Имя пользователя :
Пароль :

Восстановление пароля Регистрация
Мутанты / Mimic (Гильермо дель Торо, ужасы, фантастика, 1997) [HDRip, Профессиональный (многоголосый, закадровый)]
Рейтинг:
(голосов: 1)



[img]{THEME}/images/logopost.png[/img]



• Мутанты / Mimic •
♥ Год выпуска: 1997
♥ Страна: США
♥ Производство: Dimension Films
♥ Жанр: ужасы, фантастика

♥ Режиссёр: Гильермо дель Торо
♥ В ролях: Мира Сорвино, Джереми Нортэм, Чарльз С. Даттон, Джош Бролин, Аликс Коромзай, Александр Гудвин, Норман Ридус

♥ Перевод: Профессиональный (многоголосый, закадровый)
♥ Субтитры: Отсутствуют

♥ Описание: Талантливая исследовательница вместе со своим мужем — сотрудником департамента здравоохранения — остановила страшную эпидемию, которая успела унести многие жизни. Но, используя генную инженерию, она нарушила природный баланс — и природа начинает мстить. Издавна в живой природе жертвы научились принимать облик своих врагов: гусеница походила на змею, крылья бабочки — на глаза совы… Но теперь Нечто начинает имитировать самого опасного охотника — человека, и последний сам становится дичью. Остановить злодейское Нечто могут только двое людей, которые вызвали его к жизни



MediaInfo ▼
TextGeneral
Complete name : C:Mutanty.1997.HDRip.avi
Format : AVI
Format/Info : Audio Video Interleave
File size : 744 MiB
Duration : 1h 45mn
Overall bit rate : 987 Kbps
Writing application : VirtualDubMod 1.5.10.2 (build 2540/release)
Writing library : VirtualDubMod build 2540/release
Video #0
ID : 0
Format : MPEG-4 Visual
Format profile : Advanced [email protected]
Format settings, BVOP : 1
Format settings, QPel : No
Format settings, GMC : No warppoints
Format settings, Matrix : Default (MPEG)
Codec ID : XVID
Codec ID/Hint : XviD
Duration : 1h 45mn
Bit rate : 850 Kbps
Width : 656 pixels
Height : 368 pixels
Display aspect ratio : 16:9
Frame rate : 23.976 fps
Color space : YUV
Chroma subsampling : 4:2:0
Bit depth : 8 bits
Scan type : Progressive
Compression mode : Lossy
Bits/(Pixel*Frame) : 0.147
Stream size : 641 MiB (86%)
Writing library : XviD 1.2.1 (UTC 2008-12-04)
Audio #1
ID : 1
Format : MPEG Audio
Format version : Version 1
Format profile : Layer 3
Codec ID : 55
Codec ID/Hint : MP3
Duration : 1h 45mn
Bit rate mode : Constant
Bit rate : 128 Kbps
Channel(s) : 2 channels
Sampling rate : 48.0 KHz
Compression mode : Lossy
Stream size : 96.5 MiB (13%)
Alignment : Aligned on interleaves
Interleave, duration : 42 ms (1.00 video frame)
Interleave, preload duration : 504 ms
Writing library : LAME3.98r
Encoding settings : -m s -V 4 -q 2 -lowpass 17 -b 128

♥ Качество: HDRip
♥ Продолжительность: 01:45:38

♥ Формат: AVI
♥ Видео кодек: XviD
♥ Аудио кодек: MP3
♥ Видео: 656x368 (16:9), 23.976 fps, XviD build 50 ~850 kbps avg, 0.147 bit/pixel
♥ Аудио1: 48 kHz, MPEG Layer 3, 2 ch, ~128.00 kbps avg

♥ Дата премьеры (мир): 22 августа 1997

Релиз Группы "Virtus"

Стол заказов / Вступление в РГ / Благодарности, критика и другое


f21e439c705a28de7ab4d5b9b60c6be896f97ebbМутанты / Mimic (Гильермо дель Торо, ужасы, фантастика, 1997) [HDRip, Профессиональный (многоголосый, закадровый)] Мутанты / Mimic (Гильермо дель Торо, ужасы, фантастика, 1997) [HDRip, Профессиональный (многоголосый, закадровый)] " />

Аплоадер: Админ, дата: 21-12-2012, 16:02, торрент скачан: 359 раз

Понравилась раздача? Посмотрите эти:
  • Погнали! / Getaway (Кортни Соломон, Боевик,Криминал, 2013) [HDRip, Професси ...
  • Ледяной / The Iceman (Ариэль Вромен, триллер, драма, криминал, биография, 2 ...
  • Ночь тамплиера / Night of the Templar (Пол Сэмпсон, Ужасы, фантастика, боев ...
  • Мутанты / Mimic (Гильермо дель Торо, Ужасы, фантастика, 1997) [BDRip, Профе ...
  • Мутанты / Mimic (Гильермо дель Торо, Ужасы, фантастика, 1997) [BDRip-AVC, D ...
  • Неуловимые / Red Dawn (Дэн Брэдли, боевик, 2012) [HDRip, Профессиональный ( ...
  • Скуби-Ду! Маска Синего Сокола / Scooby-Doo! Mask Of The Blue Falcon (Оливье ...
  • Мутанты / Mimic (Гильермо дель Торо, ужасы, фантастика, драма, 1997) [BDRip ...
  • Чемпионат Европы 2012 / Группа D / 1-й тур / Украина - Швеция / Спорт 1 [11 ...
  • Tank Feat. T.I. & Kris Stephens / Compliments [2012, RnB,Hip-Hop, HDRip]
  • Битва в пустыне / The Objective (Дэниэл Мирик, ужасы, фантастика, триллер, ...
  • Буря в Арктике / Arctic Blast (Брайан Тренчард-Смит, фантастика, триллер, 2 ...
  • Индиана Джонс: В поисках утраченного ковчега / Indiana Jones and the Raider ...
  • Мутанты / Mimic (Гиллермо Дель Торо ,Ужасы, фантастика 1997) [DVDRip, Профе ...
  • Чемпионат Европы 2012 / Группа B / 1-й тур / Германия - Португалия / Спорт ...
  • Замёрзший мир / 2012: Ice Age (Трэвис Форт, фантастика, боевик, 2011) [HDRi ...
  • Супершторм в Сиэтле / Seattle Superstorm (Джейсон Бурк, фантастика, боевик ...
  • Глушь / Resurrection County (Matt Zettell, ужасы, триллер, 2008) [DVDRip, П ...
  • Искажение / Skew (Сейв Челенз, ужасы, триллер, 2011) [HDRip, Профессиональн ...
  • Ничего, кроме правды / Nothing But the Truth (Род Лури, триллер, драма, 200 ...
  • Информация
    Посетители, находящиеся в группе Гости, не могут оставлять комментарии к данной публикации.