вход на сайт

Имя пользователя :
Пароль :

Восстановление пароля Регистрация
Атака пауков / Eight Legged Freaks (Эллори Элкайем, ужасы, фантастика, боевик, триллер, комедия, 2002) [HDTVRip, Дубляж]
Рейтинг:
(голосов: 1)



[img]{THEME}/images/logopost.png[/img]



• Атака пауков / Eight Legged Freaks •
♥ Год выпуска: 2002
♥ Страна: США, Австралия
♥ Производство: Centropolis Entertainment
♥ Жанр: ужасы, фантастика, боевик, триллер, комедия

♥ Режиссёр: Эллори Элкайем
♥ В ролях: Дэвид Аркетт, Кари Вурер, Скотт Терра, Скарлетт Йоханссон, Даг Э. Даг, Рик Овертон, Леон Риппи, Мэтт Чукри, Джей Арлен Джонс, Айлин Райан

♥ Перевод: Дубляж
♥ Субтитры: Отсутствуют

♥ Описание: С грузовика, везущего опасные химические вещества, случайно падает один из контейнеров. Вещества из контейнера разливаются в озеро, нарушая его экологическую систему. Но неприятности только начинаются. Один энтомолог из расположенного неподалеку маленького городка начинает кормить своих экзотических пауков насекомыми из загрязненного озера, которые для пауков являются своеобразными «стероидами».

Пауки начинают быстро расти, становясь больше людей. Огромные мохнатые пауки голодны, и они начинают охотиться на жителей городка. Горожане, вооружившись лыжными палками и циркулярными пилами пытаются оказать сопротивление гигантским насекомым


MediaInfo ▼
TextGeneral
Complete name : C:Ataka paukov (2002)- HDTVRip.avi
Format : AVI
Format/Info : Audio Video Interleave
File size : 743 MiB
Duration : 1h 35mn
Overall bit rate : 1 092 Kbps
Writing application : VirtualDubMod 1.5.10.2 (build 2540/release)
Writing library : VirtualDubMod build 2540/release
Video #0
ID : 0
Format : MPEG-4 Visual
Format profile : Advanced [email protected]
Format settings, BVOP : 2
Format settings, QPel : No
Format settings, GMC : No warppoints
Format settings, Matrix : Default (H.263)
Codec ID : XVID
Codec ID/Hint : XviD
Duration : 1h 35mn
Bit rate : 954 Kbps
Width : 656 pixels
Height : 288 pixels
Display aspect ratio : 2.25:1
Frame rate : 25.000 fps
Color space : YUV
Chroma subsampling : 4:2:0
Bit depth : 8 bits
Scan type : Progressive
Compression mode : Lossy
Bits/(Pixel*Frame) : 0.202
Stream size : 649 MiB (87%)
Writing library : XviD 1.2.1 (UTC 2008-12-04)
Audio #1
ID : 1
Format : MPEG Audio
Format version : Version 1
Format profile : Layer 3
Codec ID : 55
Codec ID/Hint : MP3
Duration : 1h 35mn
Bit rate mode : Constant
Bit rate : 128 Kbps
Channel(s) : 2 channels
Sampling rate : 48.0 KHz
Compression mode : Lossy
Stream size : 87.2 MiB (12%)
Alignment : Aligned on interleaves
Interleave, duration : 40 ms (1.00 video frame)
Interleave, preload duration : 504 ms
Writing library : LAME3.98r
Encoding settings : -m s -V 4 -q 2 -lowpass 17 -b 128
♥ Качество: HDTVRip
♥ Продолжительность: 01:35:11

♥ Формат: AVI
♥ Видео кодек: XviD
♥ Аудио кодек: MP3
♥ Видео: 656x288 (2.25:1), 25 fps, XviD build 50 ~954 kbps avg, 0.202 bit/pixel
♥ Аудио: 48 kHz, MPEG Layer 3, 2 ch, ~128.00 kbps avg

♥ Дата премьеры (мир): 30 мая 2002
♥ Дата премьеры (РФ): 31 октября 2002, «Каро-Премьер»

Релиз Группы "Virtus"

Стол заказов / Вступление в РГ / Благодарности, критика
9f8c12dd737be245ac5d1dd7cc6da36a6ebfd01dАтака пауков / Eight Legged Freaks (Эллори Элкайем, ужасы, фантастика, боевик, триллер, комедия, 2002) [HDTVRip, Дубляж] Атака пауков / Eight Legged Freaks (Эллори Элкайем, ужасы, фантастика, боевик, триллер, комедия, 2002) [HDTVRip, Дубляж] " />

Аплоадер: Админ, дата: 16-12-2012, 00:55, торрент скачан: 359 раз

Понравилась раздача? Посмотрите эти:
  • Атака пауков / Eight Legged Freaks (Эллори Элкаем, Ужасы, Комедия, 2002) [D ...
  • Атака пауков / Eight Legged Freaks (Эллори Элкайем, ужасы, фантастика, боев ...
  • Ночь тамплиера / Night of the Templar (Пол Сэмпсон, Ужасы, фантастика, боев ...
  • Скуби-Ду! Маска Синего Сокола / Scooby-Doo! Mask Of The Blue Falcon (Оливье ...
  • Псы войны / The Dogs of War (Джон Ирвин, боевик, драма, приключения, военны ...
  • Чемпионат Европы 2012 / Группа D / 1-й тур / Украина - Швеция / Спорт 1 [11 ...
  • Мулан 2 / Mulan II (Даррел Руни, Линн Сауферлэнд, мультфильм, мюзикл, боеви ...
  • Страх / Fear (Джеймс Фоули, ужасы, триллер, драма, 1996) [BDRip, Дубляж]
  • Неделя в NBA с В.Гомельским / НТВ+ [28.06.2011, SD, XviD, RU, SAT]
  • Атака пауков / Eight Legged Freaks (Эллори Элкаем, ужасы, фантастика, боеви ...
  • Чемпионат Европы 2012 / Группа B / 1-й тур / Германия - Португалия / Спорт ...
  • Товарищеский матч 2012 / АмаЗулу (ЮАР) - Манчестер Юнайтед (Англия) / MU TV ...
  • Планета сокровищ / Treasure Planet (Рон Клементс, Джон Маскер, Мультфильм, ...
  • Олимпиада 2012 / Женщины, Мужчины / Плавание / Квалификация / НТВ+ [30.07.2 ...
  • Глушь / Resurrection County (Matt Zettell, ужасы, триллер, 2008) [DVDRip, П ...
  • Искажение / Skew (Сейв Челенз, ужасы, триллер, 2011) [HDRip, Профессиональн ...
  • Симона / S1m0ne (Эндрю Никкол, фантастика, фэнтези, драма, комедия, 2002) [ ...
  • Рука-убийца / Idle Hands (Родмен Флендер,ужасы, триллер, комедия, 1999) [HD ...
  • Лихорадка (Режиссерская версия)/ Cabin Fever (Элай Рот, ужасы, 2002) [BDRip ...
  • Петля времени / Looper (Райан Джонсон, фантастика, боевик, триллер, 2012) [ ...
  • Информация
    Посетители, находящиеся в группе Гости, не могут оставлять комментарии к данной публикации.