вход на сайт

Имя пользователя :
Пароль :

Восстановление пароля Регистрация
Ночь живых мертвецов / Night of the Living Dead (Том Савини, ужасы, 1990) [BDRip, Авторский (одноголосый, закадровый) Ю. Живов ]
Рейтинг:
(голосов: 1)



[img]{THEME}/images/logopost.png[/img]



• Ночь живых мертвецов / Night of the Living Dead •
♥ Год выпуска: 1990
♥ Страна: США
♥ Производство: 21st Century Film Corporation, Columbia Pictures Corporation
♥ Жанр: ужасы

♥ Режиссёр: Том Савини
♥ В ролях: Тони Тодд, Патриша Тэллман, Том Таулз, МакКи Андерсон, Уильям Батлер, Кэти Финнеран, Билл Моусли, Хезер Мазур, Дэвид В. Батлер, Захари Мотт

♥ Перевод: Авторский (одноголосый, закадровый) Ю. Живов
♥ Субтитры: русские , английские (полные, SDH)

♥ Описание: Брат и сестра приезжают навестить могилу своей матушки на кладбище в окрестностях Питтсбурга. Брат пугает сестру рассказами о зомби, не подозревая о том, что он весьма недалек от реальности. Внезапно на них набрасывается один из покойников; брата убивают, а Барбара убегает, обнаруживая по дороге фермерский дом. Через какое-то время к нему подъезжает Бен, в бензобаке машины которого кончился бензин. Они решают остаться в доме и готовиться к обороне. Позже выясняется, что в подвале дома прячутся еще несколько человек. Все вместе они должны забаррикадироваться и переждать страшную ночь — ведь зомби не станут сидеть на крыльце и ждать, пока люди выйдут сами — они будут пытаться прорваться внутрь — желание отведать человеческого мяса в них безумно сильно.



MediaInfo ▼
TextGeneral
Complete name : C:Noch.zhivyh.mertvecov.1990.RUS.BDRip.XviD.AC3.-HQCLUB.avi
Format : AVI
Format/Info : Audio Video Interleave
File size : 1.45 GiB
Duration : 1h 28mn
Overall bit rate : 2 357 Kbps
Movie name : Ночь живых мертвецов / Night of the Living Dead (1990) BDRip
Director : yaros
Genre : ужасы
Writing application : VirtualDubMod 1.5.10.2 (build 2540/release)
Comment : 05.12.2012
Video #0
ID : 0
Format : MPEG-4 Visual
Format profile : Advanced [email protected]
Format settings, BVOP : 1
Format settings, QPel : No
Format settings, GMC : No warppoints
Format settings, Matrix : Custom
Codec ID : XVID
Codec ID/Hint : XviD
Duration : 1h 28mn
Bit rate : 1 900 Kbps
Width : 704 pixels
Height : 384 pixels
Display aspect ratio : 16:9
Frame rate : 23.976 fps
Color space : YUV
Chroma subsampling : 4:2:0
Bit depth : 8 bits
Scan type : Progressive
Compression mode : Lossy
Bits/(Pixel*Frame) : 0.293
Stream size : 1.17 GiB (81%)
Writing library : XviD 65
Audio #1
ID : 1
Format : AC-3
Format/Info : Audio Coding 3
Mode extension : CM (complete main)
Codec ID : 2000
Duration : 1h 28mn
Bit rate mode : Constant
Bit rate : 448 Kbps
Channel(s) : 6 channels
Channel positions : Front: L C R, Side: L R, LFE
Sampling rate : 48.0 KHz
Bit depth : 16 bits
Compression mode : Lossy
Stream size : 283 MiB (19%)
Alignment : Split accross interleaves
Interleave, duration : 42 ms (1.00 video frame)
Interleave, preload duration : 500 ms
♥ Качество: BDRip (ист. Diablo / Blu-Ray Remux / 1080р) | Сэмпл
♥ Продолжительность: 01:28:15

♥ Формат: AVI
♥ Видео кодек: XviD
♥ Аудио кодек: AC3
0389511cf6f171d9caf7db300dd2463136618ed6Ночь живых мертвецов / Night of the Living Dead (Том Савини, ужасы, 1990) [BDRip, Авторский (одноголосый, закадровый) Ю. Живов ] Ночь живых мертвецов / Night of the Living Dead (Том Савини, ужасы, 1990) [BDRip, Авторский (одноголосый, закадровый) Ю. Живов ] " />

Аплоадер: Админ, дата: 8-12-2012, 23:58, торрент скачан: 359 раз

Понравилась раздача? Посмотрите эти:
  • Вирус / Flu (Ким Сон Су, Драма, 2013) [HDTVRip, Любительский (двухголосый з ...
  • Мои герои / Mes heros (Эрик Беснард, комедия, 2012) [HDRip, Профессиональны ...
  • Ночь Живых Мертвецов / Night Of The Living Dead(Том Савини, ужасы, 1990) [B ...
  • Возвращение героя / The Last Stand (Ким Чжи-ун, Боевик, триллер, криминал, ...
  • Мужество / Wymyk (Грег Зглински, драма, 2011) [DVDRip, Любительский (одного ...
  • 42 / 42 (Брайан Хелгеленд, драма, биография, спорт, 2013) [BDRip, Профессио ...
  • Неудержимый / Bullet to the Head (Уолтер Хилл, Боевик, триллер, криминал, 2 ...
  • Ночь тамплиера / Night of the Templar (Пол Сэмпсон, Ужасы, фантастика, боев ...
  • Звук моего голоса / Sound of My Voice (Зал Батманглидж, триллер, драма, 201 ...
  • 23:59 / 23:59 (Гилберт Чан, Ужасы, 2011) [HDRip, Любительский (одноголосый ...
  • Муви 43 / Movie 43 (Стивен Брилл, Питер Фаррелли, Элизабет БэнксСтивен, ком ...
  • Псы войны / The Dogs of War (Джон Ирвин, боевик, драма, приключения, военны ...
  • Монстры на каникулах / Hotel Transylvania (Генндий Тартаковский, мультфильм ...
  • Плохая актриса / Bad Actress (Роберт Ли Кинг, комедия, 2011) [DVDRip, Профе ...
  • Остановка / Rest Stop: Dead Ahead (Джон Шибан, ужасы, триллер, 2006) [HDRip ...
  • Джефф, живущий дома / Jeff, Who Lives at Home (Джей Дюпласс, Марк Дюпласс, ...
  • Ночь живых мертвецов / Night of the Living Dead (Том Савини, Ужасы, 1990) [ ...
  • Захват / Carjacked (Джон Бонито, триллер, 2011)[BDRip, Профессиональный (мн ...
  • Tank Feat. T.I. & Kris Stephens / Compliments [2012, RnB,Hip-Hop, HDRip]
  • Дом вверх дном / Bringing Down the House (Адам Шенкман, комедия, 2003) [BDR ...
  • Ночь живых мертвецов: Начало / Night of the Living Dead 3D: Re-Animation (Д ...
  • Остаться в живых / Stay Alive (Уильям Брент Белл, ужасы, триллер, 2006) [DV ...
  • Ночь живых мертвецов (Римейк) / Night Of the Living Dead (Remake) (Том Сави ...
  • Супершторм в Сиэтле / Seattle Superstorm (Джейсон Бурк, фантастика, боевик ...
  • Олимпиада 2012 / Женщины, Мужчины / Плавание / Квалификация / НТВ+ [30.07.2 ...
  • Информация
    Посетители, находящиеся в группе Гости, не могут оставлять комментарии к данной публикации.