вход на сайт

Имя пользователя :
Пароль :

Восстановление пароля Регистрация
Оборотень: Зверь среди нас / Werewolf: The Beast Among Us (Луи Морно, ужасы, триллер, 2012) [HDRip-AVC, Профессиональный (дублированный) + Sub]
Рейтинг:
(голосов: 1)



[img]{THEME}/images/logopost.png[/img]



• Оборотень: Зверь среди нас / Werewolf: The Beast Among Us •

♥ Год выпуска: 2012
♥ Страна: США
♥ Производство: Universal 1440 Entertainment
♥ Жанр: ужасы, триллер

♥ Режиссёр: Луи Морно
♥ В ролях: Ниа Пиплз, Стивен Бауэр, Стивен Ри, Эд Куинн, Рэйчел ДиПилло, Ана Улару, Гай Уилсон, Адам Кроусделл, Эмиль Хостина, Золтан Бутуч

♥ Перевод: Профессиональный (полное дублирование)
♥ Субтитры: Русские, Aнглийские

♥ Описание:Действие фильма разворачивается в небольшой деревушке девятнадцатого века. Молодой человек, изучающий врачебное дело под руководством местного доктора, решает вступить в ряды охотников за оборотнями, когда жители деревни начинают гибнуть один за другим от лап неведомого зверя. Кто он, этот монстр? Один из жителей деревни или нечто совершенно неведомое? Человек днем, чудовище ночью.
"Media Info" ▼Text
Format : Matroska
File size : 1.42 GiB
Duration : 1h 33mn
Overall bit rate : 2 176 Kbps
Movie name : -=POTROKS=-
Encoded date : UTC 2012-12-12 19:30:56
Writing application : mkvmerge v5.7.0 (The Whirlwind) built on Jul 8 2012 20:08:51
Writing library : libebml v1.2.3 + libmatroska v1.3.0
Video #1
ID : 1
Format : AVC
Format/Info : Advanced Video Codec
Format profile : [email protected]
Format settings, CABAC : Yes
Format settings, ReFrames : 12 frames
Codec ID : V_MPEG4/ISO/AVC
Duration : 1h 33mn
Bit rate : 1 791 Kbps
Width : 1 024 pixels
Height : 576 pixels
Display aspect ratio : 16:9
Frame rate mode : Variable
Frame rate : 23.976 fps
Color space : YUV
Chroma subsampling : 4:2:0
Bit depth : 8 bits
Scan type : Progressive
Bits/(Pixel*Frame) : 0.127
Stream size : 1.14 GiB (80%)
Title : Îáîðîòåíü
Writing library : x264 core 128 r2216M 198a7ea
Encoding settings : cabac=1 / ref=13 / deblock=1:-2:-2 / analyse=0x3:0x133 / me=umh / subme=11 / psy=1 / psy_rd=0.50:0.05 / mixed_ref=1 / me_range=32 / chroma_me=1 / trellis=2 / 8x8dct=1 / cqm=0 / deadzone=21,11 / fast_pskip=0 / chroma_qp_offset=-3 / threads=8 / lookahead_threads=1 / sliced_threads=0 / nr=0 / decimate=1 / interlaced=0 / bluray_compat=0 / constrained_intra=0 / bframes=14 / b_pyramid=1 / b_adapt=2 / b_bias=0 / direct=3 / weightb=1 / open_gop=0 / weightp=2 / keyint=240 / keyint_min=23 / scenecut=40 / intra_refresh=0 / rc_lookahead=150 / rc=2pass / mbtree=1 / bitrate=1791 / ratetol=1.0 / qcomp=0.70 / qpmin=10 / qpmax=58 / qpstep=4 / cplxblur=20.0 / qblur=0.5 / vbv_maxrate=20000 / vbv_bufsize=25000 / nal_hrd=none / ip_ratio=1.35 / aq=1:0.70
Language : English
Audio #2
ID : 2
Format : AC-3
Format/Info : Audio Coding 3
Mode extension : CM (complete main)
Codec ID : A_AC3
Duration : 1h 33mn
Bit rate mode : Constant
Bit rate : 384 Kbps
Channel(s) : 6 channels
Channel positions : Front: L C R, Side: L R, LFE
Sampling rate : 48.0 KHz
Bit depth : 16 bits
Compression mode : Lossy
Stream size : 257 MiB (18%)
Title : Dub | DD 5.1 @ 384 kbps
Language : Russian
Text #3
ID : 3
 
1f4c649265a130c8ecad62fe38b230873f81c5c3Оборотень: Зверь среди нас / Werewolf: The Beast Among Us (Луи Морно, ужасы, триллер, 2012) [HDRip-AVC, Профессиональный (дублированный) + Sub] Оборотень: Зверь среди нас / Werewolf: The Beast Among Us (Луи Морно, ужасы, триллер, 2012) [HDRip-AVC, Профессиональный (дублированный) + Sub] " />

Аплоадер: Админ, дата: 14-12-2012, 16:13, торрент скачан: 359 раз

Понравилась раздача? Посмотрите эти:
  • FLO / NRG [2012, Pop, Dance, MasterRip]
  • Пастырь / Priest (Скотт Чарльз Стюарт, ужасы, фантастика, боевик, триллер, ...
  • Соучастник / Collateral (Майкл Манн, Триллер, драма, криминал, 2004) [BDRip ...
  • Сайлент Хилл 2 / Silent Hill: Revelation 3D (Майкл Дж. Бассетт, ужасы, трил ...
  • Зубная фея 2 / Tooth Fairy 2 (Алекс Замм, комедия, семейный, 2012) [BDRip 7 ...
  • Бедная богатая девочка / Young Adult (Джейсон Райтман, драма, комедия, 2011 ...
  • Затаившиеся / Hidden (Антуан Томас, ужасы, триллер, 2011) [HDRip-AVC, Дубли ...
  • [ENG] Оборотень: Зверь среди нас / Werewolf: The Beast Among Us (Луи Морно ...
  • Патруль / End of Watch (Дэвид Эйр, Триллер, драма, криминал, 2012) [BDRip-A ...
  • Оборотень: Зверь среди нас / Werewolf: The Beast Among Us (Луи Морно, ужасы ...
  • Оборотень: Зверь среди нас / Werewolf: The Beast Among Us (Луи Морно, ужасы ...
  • Коллекционер 2 / The Collection (Маркус Данстэн, ужасы, боевик, триллер , 2 ...
  • Исходный код / Source Code (Дункан Джонс, фантастика, боевик, триллер, 2011 ...
  • Семь футов / Seven Below (Кевин Каррауэй, Ужасы, триллер, 2012) [BDRip 720p ...
  • Оборотень: Зверь среди нас / Werewolf: The Beast Among Us (Луи Морно, ужасы ...
  • Футбольный клуб / Чемпионат Европы 2012 / НТВ+ [Футбол, 08.06.2012, HDTVRip ...
  • Чемпионат Европы 2012 / 1/2 финала / Португалия - Испания / Спорт 1 HD [Фу ...
  • Чемпионат Европы 2012 / 1/2 финала / Германия - Италия / Спорт 1 HD [Футбо ...
  • Chelsea - Season Review 2011-12 / Челси - Обзор Сезона 2011-12 [ Футбол, 20 ...
  • Mylene Farmer / Du Temps [2011, Pop, HDTVRip]
  • Mylene Farmer / Bleu Noir [2011, Pop, HDTVRip]
  • Оборотень: Зверь среди нас / Werewolf: The Beast Among Us (Луи Морно, ужасы ...
  • Оборотень: Зверь среди нас / Werewolf: The Beast Among Us (Луи Морно, Ужас ...
  • Хостел 3 / Hostel: Part III (Скотт Спигел / Scott Spiegel, ужасы, триллер, ...
  • Madonna / Girl Gone Wild [2012, Pop, HDTV]
  • Информация
    Посетители, находящиеся в группе Гости, не могут оставлять комментарии к данной публикации.