вход на сайт

Имя пользователя :
Пароль :

Восстановление пароля Регистрация
Поворот не туда 5 / Wrong Turn 5 (Деклан О’Брайэн, ужасы, триллер, 2012) [BDRip-AVC, Профессиональный (многоголосый, закадровый), Оригинал (английский), Sub [Rus, Eng]]
Рейтинг:
(голосов: 1)



[img]{THEME}/images/logopost.png[/img]



«Поворот не туда 5 / Wrong Turn 5»

«The inbred hillbillies are back!»

Информация о фильме
Год выпуска: 2012
Страна: США
Производство: 20th Century Fox Home Entertainment
Жанр: ужасы, триллер

Режиссёр: Деклан О’Брайэн / Declan OBrien
В ролях: Камилла Арфведсон, Даг Брэдли, Simon Ginty, Оливер Хоар, Роксанна МакКи, Эми Леннокс, Paul Luebke, Дункан Уисби, Радослав Парванов, Джордж Карлуковский

Перевод: Профессиональный (многоголосый, закадровый), Оргинал (английский) [лицензия]
Озвучка: не известно
Субтитры: Sub [Rus, Eng] (вшитые, отключаемые)

Описание
Маленький городок в Западной Вирджинии проводит ежегодный фестиваль «Горный человек», посвящённый Хэллоуину. Туда направляется группа студентов колледжа, однако они не подозревают, что шумная костюмированная вечеринка с музыкой и выпивкой обернётся для них кровавым кошмаром — на фестиваль направляется семья горных каннибалов.

Тех.Данные
Качество: BDRip-AVC
Продолжительность: ~ 01:30:48 часа

Формат: Matroska-MKV-
Видео кодек: [email protected]
Аудио кодек: Audio Coding 3
Видео: 1024x576 (16:9), 23.976 fps, AVC ~2542 kbps avg, 0.180 bit/pixel
Аудио: 48 kHz, AC3 Dolby Digital, 3/2 (L,C,R,l,r) + LFE ch, ~384.00 Кбит/секRus
Аудио: 48 kHz, AC3 Dolby Digital, 3/2 (L,C,R,l,r) + LFE ch, ~448.00 Кбит/секEng
MediaInfo ▼TextФормат : Matroska
Версия формата : Version 2
Размер файла : 2,14 Гбайт
Продолжительность : 1 ч. 30 м.
Общий поток : 3368 Кбит/сек
Название фильма : Wrong Turn 5 (2012)
Дата кодирования : UTC 2012-12-01 15:27:27
Программа кодирования : mkvmerge v5.7.0 (The Whirlwind) built on Jul 8 2012 20:08:51
Библиотека кодирования : libebml v1.2.3 + libmatroska v1.3.0

Видео
Идентификатор : 1
Формат : AVC
Формат/Информация : Advanced Video Codec
Профиль формата : [email protected]
Параметр CABAC формата : Да
Параметр ReFrames формата : 12 кадров
Идентификатор кодека : V_MPEG4/ISO/AVC
Продолжительность : 1 ч. 30 м.
Битрейт : 2542 Кбит/сек
Ширина : 1024 пикселя
Высота : 576 пикселей
Соотношение сторон : 16:9
Режим частоты кадров : Постоянный
Частота кадров : 23,976 кадра/сек
Цветовое пространство : YUV
Субдискретизация насыщенности : 4:2:0
Битовая глубина : 8 бит
Тип развёртки : Прогрессивная
Бит/(Пиксели*Кадры) : 0.180
Размер потока : 1,57 Гбайт (73%)
Заголовок : Поворот не туда 5
Библиотека кодирования : x264 core 128 r2216M 198a7ea
Настройки программы : cabac=1 / ref=13 / deblock=1:-2:-2 / analyse=0x3:0x133 / me=umh / subme=11 / psy=1 / psy_rd=1.10:0.00 / mixed_ref=1 / me_range=48 / chroma_me=1 / trellis=2 / 8x8dct=1 / cqm=0 / deadzone=21,11 / fast_pskip=0 / chroma_qp_offset=-2 / threads=4 / lookahead_threads=1 / sliced_threads=0 / nr=0 / decimate=1 / interlaced=0 / bluray_compat=0 / constrained_intra=0 / bframes=14 / b_pyramid=1 / b_adapt=2 / b_bias=0 / direct=3 / weightb=1 / open_gop=0 / weightp=2 / keyint=240 / keyint_min=23 / scenecut=40 / intra_refresh=0 / rc_lookahead=240 / rc=2pass / mbtree=1 / bitrate=2542 / ratetol=1.0 / qcomp=0.70 / qpmin=10 / qpmax=60 / qpstep=3 / cplxblur=20.0 / qblur=0.5 / vbv_maxrate=20000 / vbv_bufsize=25000 / nal_hrd=none / ip_ratio=1.35 / aq=1:0.70
Язык : English
Default : Да
Forced : Нет

Аудио #1
Идентификатор : 2
Формат : AC-3
Формат/Информация : Audio Coding 3
Расширение режима : CM (complete main)
Параметр Endianness формата : Big
Идентификатор кодека : A_AC3
Продолжительность : 1 ч. 30 м.
Вид битрейта : Постоянный
Битрейт : 384 Кбит/сек
Каналы : 6 каналов
Расположение каналов : Front: L C R, Side: L R, LFE
Частота : 48,0 КГц
Битовая глубина : 16 бит
Метод сжатия : С потерями
Размер потока : 249 Мбайт (11%)
Заголовок : MVO | DD 5.1 @ 384 kbps
Язык : Russian
Default : Да
Forced : Нет

Аудио #2
Идентификатор : 3
Формат : AC-3
Формат/Информация : Audio Coding 3
Расширение режима : CM (complete main)
Параметр Endianness формата : Big
Идентификатор коде
956f3534e0f3d1f3d53bec0dd45acce77a86cfc1Поворот не туда 5 / Wrong Turn 5 (Деклан О’Брайэн, ужасы, триллер, 2012) [BDRip-AVC, Профессиональный (многоголосый, закадровый), Оригинал (английский), Sub [Rus, Eng]] Поворот не туда 5 / Wrong Turn 5 (Деклан О’Брайэн, ужасы, триллер, 2012) [BDRip-AVC, Профессиональный (многоголосый, закадровый), Оригинал (английский), Sub [Rus, Eng]] " />

Аплоадер: Админ, дата: 2-12-2012, 12:53, торрент скачан: 359 раз

Понравилась раздача? Посмотрите эти:
  • Погнали! / Getaway (Кортни Соломон, боевик, криминал, 2013) [BDRip-AVC, Про ...
  • Изоляция / Isolation (Билли О`Брайэн, ужасы, триллер, 2005) [BDRip-AVC, Про ...
  • Никто не выжил / No One Lives (Рюхэй Китамура, Триллер, ужасы, 2012) [BDRip ...
  • Летучий отряд Скотланд-Ярда / The Sweeney (Ник Лав, Боевик, драма, криминал ...
  • Залив / The Bay (Барри Левинсон, Ужасы, фантастика, триллер, 2012) [BDRip-A ...
  • Порочные игры / Stoker (Пак Чхан Ук, Триллер, драма, детектив, 2013) [BDRip ...
  • Порочные игры / Stoker (Пак Чхан Ук, Триллер, драма, детектив, 2013) [BDRip ...
  • Фантомы / Shutter (Масаюки Очиай, ужасы, триллер, детектив, 2008) [BDRip-AV ...
  • Рикошет / Ricochet (Ник Гомез, драма, детектив, 2011) [BDRip-AVC, Профессио ...
  • Мама / Mama (Андрес Мускетти, ужасы, фэнтези, триллер, 2013) [BDRip-AVC, Пр ...
  • АББА: фильм / ABBA: The Movie (документальный, драма, музыка, 1977) [BDRip- ...
  • Пакт / The Pact (Николас МакКарти, ужасы, триллер, детектив, 2012) [BDRip-A ...
  • Крученый мяч / Trouble with the Curve (Роберт Лоренц, Драма, 2012) [BDRip-A ...
  • Суррогат / The Sessions (Бен Луин, Драма, 2012) [BDRip-AVC, Профессиональны ...
  • Поворот не туда 4 / Wrong Turn 4 (Деклан О’Брайэн, ужасы, боевик, детектив, ...
  • Хрупкость / Frágiles (Жауме Балагуэро, ужасы, триллер, 2005) [BDRip-AVC, Пр ...
  • Дневник слабака 3 / Diary of a Wimpy Kid: Dog Days (Дэвид Бауэрс, Комедия, ...
  • Эд Вуд / Ed Wood (Тим Бёртон, драма, комедия, биография, 1994) [BDRip-AVC, ...
  • Поворот не туда 5 / Wrong Turn 5 (Деклан О’Брайэн, ужасы, триллер, 2012) [B ...
  • Поворот не туда 5 / Wrong Turn 5 (Деклан О’Брайэн, ужасы, триллер, 2012) [B ...
  • Поворот не туда 3 / Wrong Turn 3: Left for Dead (Деклан О`Брайэн, ужасы, т ...
  • Поворот не туда 3 / Wrong Turn 3: Left for Dead (Деклан О`Брайэн, ужасы, тр ...
  • Поворот не туда 4 / Wrong Turn 4 (Деклан О’Брайэн, ужасы, триллер, 2011) [H ...
  • [ENG] Поворот не туда 5: Кровные узы / Wrong Turn 5: Bloodlines (Деклан О’Б ...
  • Поворот не туда 5 / Wrong Turn 5 (Деклан О’Брайэн, ужасы, триллер, 2012) [H ...
  • Информация
    Посетители, находящиеся в группе Гости, не могут оставлять комментарии к данной публикации.