вход на сайт

Имя пользователя :
Пароль :

Восстановление пароля Регистрация
Президент Линкольн: Охотник на вампиров / Abraham Lincoln: Vampire Hunter (Тимур Бекмамбетов, ужасы, фэнтези, боевик, триллер, 2012) [BDRip-AVC 720p, Дублированный + Оригинал + SUB]
Рейтинг:
(голосов: 1)



[img]{THEME}/images/logopost.png[/img]



Президент Линкольн: Охотник на вампиров / Abraham Lincoln: Vampire Hunter
«Президент днём. Охотник ночью»

Год выпуска: 2012
Страна: США
Производство: Abraham Productions, Базелевс Продакшн, Tim Burton Productions
Жанр: ужасы, фэнтези, боевик, триллер

Режиссёр: Тимур Бекмамбетов | Timur Bekmambetov
В ролях: Бенджамин Уокер (Abraham Lincoln), Доминик Купер (Henry Sturges), Энтони Маки (Will Johnson), Мэри Элизабет Уинстэд (Mary Todd Lincoln), Руфус Сьюэлл (Adam), Мартон Чокаш (Jack Barts), Джимми Симпсон (Joshua Speed), Джозеф Моул (Thomas Lincoln), Робин МакЛиви (Nancy Lincoln), Эрин Уоссон (Vadoma)

Перевод: 1 - Профессиональный (полное дублирование)
2 - Оригинал (Английский)
Субтитры: softsub (SRT) | русские (Full), русские (Forsed), английские (Full)

Описание:
Сюжет фильма раскрывает тайную жизнь Величайшего Президента Америки Авраама Линкольна — любящего мужа и отца днем и беспощадного убийцу вампиров ночью. Армия кровопийц, которым он бросил вызов, растет с каждым днем. Сможет ли президент великой страны противостоять полчищам вампиров и спасти свою семью и народ от неминуемой гибели?..Дата премьеры (мир): 18 июня 2012
Дата премьеры (РФ): 21 июня 2012, «Двадцатый Век Фокс СНГ»
Релиз на DVD: 18 октября 2012, «Двадцатый Век Фокс СНГ»
Релиз на Blu-Ray: 18 октября 2012, «Двадцатый Век Фокс СНГ»
Автор Рипа - AVT83
Качество: BDRip - AVC 720р | исх. Президент Линкольн: Охотник на вампиров / Abraham Lincoln: Vampire Hunter (2012) Blu-ray CEE 1080p AVC DD5.1
Продолжительность: 01:45:00

Формат: MKV
Видео кодек: H.264
Аудио кодек: AC3
Видео: 1280x536 (2.40:1), 23,976 fps, H.264 ~3 462 kbps avg, 0.210 bit/pixel
Аудио #1: 48 kHz, AC3, 3/2 (L,C,R,l,r) + LFE ch, ~448.00 kbps avg | Профессиональный (полное дублирование)
Аудио #2: 48 kHz, AC3, 3/2 (L,C,R,l,r) + LFE ch, ~448.00 kbps avg | Оригинал (Английский)
MediaInfo ▼Format : Matroska
Format version : Version 2
File size : 3.20 GiB
Duration : 1h 45mn
Overall bit rate : 4 357 Kbps
Encoded date : UTC 2012-10-15 12:45:58
Writing application : mkvmerge v4.0.0 (The Stars were mine) built on Jun 6 2010 16:18:42
Writing library : libebml v1.0.0 + libmatroska v1.0.0

Video
ID : 1
Format : AVC
Format/Info : Advanced Video Codec
Format profile : [email protected]
Format settings, CABAC : Yes
Format settings, ReFrames : 12 frames
Codec ID : V_MPEG4/ISO/AVC
Duration : 1h 45mn
Bit rate : 3 462 Kbps
Width : 1 280 pixels
Height : 536 pixels
Display aspect ratio : 2.40:1
Frame rate : 23.976 fps
Color space : YUV
Chroma subsampling : 4:2:0
Bit depth : 8 bits
Scan type : Progressive
Bits/(Pixel*Frame) : 0.210
Stream size : 2.48 GiB (77%)
Writing library : x264 core 119 r2106 07efeb4
Encoding settings : cabac=1 / ref=12 / deblock=1:-2:-1 / analyse=0x3:0x113 / me=umh / subme=10 / psy=1 / psy_rd=1.05:0.10 / mixed_ref=1 / me_range=32 / chroma_me=1 / trellis=2 / 8x8dct=1 / cqm=0 / deadzone=21,11 / fast_pskip=0 / chroma_qp_offset=-3 / threads=6 / sliced_threads=0 / nr=0 / decimate=0 / interlaced=0 / bluray_compat=0 / constrained_intra=0 / bframes=10 / b_pyramid=2 / b_adapt=2 / b_bias=0 / direct=3 / weightb=1 / open_gop=0 / weightp=2 / keyint=250 / keyint_min=24 / scenecut=40 / intra_refresh=0 / rc_lookahead=60 / rc=2pass / mbtree=1 / bitrate=3462 / ratetol=1.0 / qcomp=0.65 / qpmin=0 / qpmax=69 / qpstep=4 / cplxblur=20.0 / qblur=0.5 / ip_ratio=1.40 / aq=1:1.00
Language : English
Default : No
Forced : No

Audio #1
ID : 2
Format : AC-3
Format/Info : Audio Coding 3
Mode extension : CM (complete main)
Format settings, Endianness : Big
Codec ID : A_AC3
Duration : 1h 45mn
Bit rate mode : Constant
Bit rate : 448 Kbps
Channel(s) : 6 channels
Channel positions : Front: L C R, Side: L R, LFE
Sampling rate : 48.0 KHz
Bit depth : 16 bits
Compression mode : Lossy
Stream size : 336 MiB (10%)
Title : Д
a898bb14fb6b9f334ecb04150cc3a79d8c7e91c8Президент Линкольн: Охотник на вампиров / Abraham Lincoln: Vampire Hunter (Тимур Бекмамбетов, ужасы, фэнтези, боевик, триллер, 2012) [BDRip-AVC 720p, Дублированный + Оригинал + SUB] Президент Линкольн: Охотник на вампиров / Abraham Lincoln: Vampire Hunter (Тимур Бекмамбетов, ужасы, фэнтези, боевик, триллер, 2012) [BDRip-AVC 720p, Дублированный + Оригинал + SUB] " />

Аплоадер: Админ, дата: 28-10-2012, 18:01, торрент скачан: 359 раз

Понравилась раздача? Посмотрите эти:
  • Линкольн / Lincoln (Стивен Спилберг, Драма, военный, биография, история, 20 ...
  • [3D] Президент Линкольн: Охотник на вампиров / Abraham Lincoln: Vampire Hun ...
  • Президент Линкольн: Охотник на вампиров / Abraham Lincoln: Vampire Hunter ( ...
  • Президент Линкольн: Охотник на вампиров / Abraham Lincoln: Vampire Hunter ( ...
  • Президент Линкольн: Охотник на вампиров / Abraham Lincoln: Vampire Hunter ( ...
  • [3D] Президент Линкольн: Охотник на вампиров / Abraham Lincoln: Vampire Hun ...
  • [3D] Президент Линкольн: Охотник на вампиров / Abraham Lincoln: Vampire Hun ...
  • Президент Линкольн: Охотник на вампиров / Abraham Lincoln: Vampire Hunter ( ...
  • Президент Линкольн: Охотник на вампиров / Abraham Lincoln: Vampire Hunter ( ...
  • Президент Линкольн: Охотник на вампиров / Abraham Lincoln: Vampire Hunter ( ...
  • [iPhone, iPod] Президент Линкольн: Охотник на вампиров / Abraham Lincoln: V ...
  • Президент Линкольн: Охотник на вампиров / Abraham Lincoln: Vampire Hunter ( ...
  • Президент Линкольн: Охотник на вампиров / Abraham Lincoln: Vampire Hunter ( ...
  • Президент Линкольн: Охотник на вампиров / Abraham Lincoln: Vampire Hunter ( ...
  • Президент Линкольн: Охотник на вампиров / Abraham Lincoln: Vampire Hunter ( ...
  • [3D] Президент Линкольн: Охотник на вампиров / Abraham Lincoln: Vampire Hun ...
  • Президент Линкольн: Охотник на вампиров / Abraham Lincoln: Vampire Hunter ( ...
  • Президент Линкольн: Охотник на вампиров / Abraham Lincoln: Vampire Hunter ( ...
  • Президент Линкольн: Охотник на вампиров / Abraham Lincoln: Vampire Hunter ( ...
  • Linkin Park / Powerless (OST Abraham Lincoln - Vampire Hunter) [2012, Alter ...
  • Информация
    Посетители, находящиеся в группе Гости, не могут оставлять комментарии к данной публикации.