вход на сайт

Имя пользователя :
Пароль :

Восстановление пароля Регистрация
Запретная зона / Chernobyl Diaries (Брэдли Паркер, Ужасы, 2012) [BDRip-AVC, Дубляж, Sub]
Рейтинг:
(голосов: 1)



[img]{THEME}/images/logopost.png[/img]



Запретная зона / Chernobyl Diaries
«Десять лет назад правительство разрешило экскурсии в Мёртвый город. Они утверждали, что это безопасно... они ошибались»


Год выпуска: 2012
Страна: США
Производство: Alcon Entertainment, FilmNation Entertainment
Жанр: Ужасы

Режиссёр: Брэдли Паркер
В ролях: Ингрид Болсай Бердал, Дмитрий Дьяченко, Оливия Дадли, Девин Келли, Джесси МакКартни, Натан Филлипс, Джонатан Садовский, Милош Тимотиевич, Милутин Милошевич, Иван Джорджевич

Перевод: Дубляж
Субтитры: Русские, английские

Описание: Шестеро молодых туристов-экстремалов прибыли на каникулы в Украину. Узнав о том, что в Зону отчуждения устраиваются экскурсии, они нанимают гида и отправляются за незабываемыми впечатлениями. И таковые не заставляют их долго ждать. Казалось, радиоактивный город пуст и заброшен. Там не осталось ничего живого. Но как только солнце прячется за горизонт, Припять оживает. Нечеловеческие крики сотрясают ночной воздух. Незадачливых путешественников охватывают ужас и паника. Они понимают, что не одни в этом мёртвом городе.



Релиз от:
Автор рипа: Rockboy

Качество: BDRip-AVC
Продолжительность: 01:28:23 час.

Формат: MKV
Видео кодек: x264
Аудио кодек: AC3
Видео: 808x436 (1.85:1), 23.976 fps, x264 ~1 957 kbps avg, 0.232 bit/pixel
Аудио: 48 kHz, AC3 Dolby Digital, 3/2 (L,C,R,l,r) + LFE ch, ~384 kbps

Дата премьеры (мир): 24 мая 2012
Дата премьеры (РФ): 24 мая 2012, «Top Film Distribution»


"MediaInfo | x264 log" ▼"x264 log" ▼x264 [info]: frame I:766 Avg QP:15.30 size: 50193
x264 [info]: frame P:29606 Avg QP:18.29 size: 17901
x264 [info]: frame B:96772 Avg QP:18.95 size: 7526
x264 [info]: consecutive B-frames: 2.2% 2.9% 10.6% 28.6% 18.9% 28.0% 3.6% 1.6% 3.6%
Video
ID : 1
Format : AVC
Format/Info : Advanced Video Codec
Format profile : [email protected]
Format settings, CABAC : Yes
Format settings, ReFrames : 8 frames
Codec ID : V_MPEG4/ISO/AVC
Duration : 1h 28mn
Bit rate : 1 957 Kbps
Width : 808 pixels
Height : 436 pixels
Display aspect ratio : 1.85:1
Frame rate : 23.976 fps
Color space : YUV
Chroma subsampling : 4:2:0
Bit depth : 8 bits
Scan type : Progressive
Bits/(Pixel*Frame) : 0.232
Stream size : 1.18 GiB (82%)
Writing library : x264 core 125 r2200 999b753
Encoding settings : cabac=1 / ref=8 / deblock=1:-2:-2 / analyse=0x3:0x133 / me=umh / subme=10 / psy=1 / psy_rd=1.00:0.05 / mixed_ref=1 / me_range=32 / chroma_me=1 / trellis=2 / 8x8dct=1 / cqm=0 / deadzone=21,11 / fast_pskip=0 / chroma_qp_offset=-3 / threads=6 / lookahead_threads=1 / sliced_threads=0 / nr=0 / decimate=0 / interlaced=0 / bluray_compat=0 / constrained_intra=0 / bframes=8 / b_pyramid=2 / b_adapt=2 / b_bias=0 / direct=3 / weightb=1 / open_gop=0 / weightp=2 / keyint=250 / keyint_min=23 / scenecut=40 / intra_refresh=0 / rc_lookahead=40 / rc=2pass / mbtree=0 / bitrate=1957 / ratetol=1.0 / qcomp=0.65 / qpmin=10 / qpmax=51 / qpstep=4 / cplxblur=20.0 / qblur=0.5 / vbv_maxrate=20000 / vbv_bufsize=20000 / nal_hrd=none / ip_ratio=1.40 / pb_ratio=1.30 / aq=1:1.00
Language : English
Default : Yes
Forced : No

Audio
ID : 2
Format : AC-3
Format/Info : Audio Coding 3
Mode extension : CM (complete main)
Format settings, Endianness : Big
Codec ID : A_AC3
Duration : 1h 28mn
Bit rate mode : Constant
Bit rate : 384 Kbps
Channel(s) : 6 channels
Channel positions : Front: L C R, Side: L R, LFE
Sampling rate : 48.0 KHz
Bit depth : 16 bits
Compression mode : Lossy
Stream size : 243 MiB (16%)
Language : Russian
Default : Yes
Forced : No

Text #1
ID : 3
Format : UTF-8
Codec ID : S_TEXT/UTF8
Codec ID/Info : UTF-8 Plain Text
Language : Russian
Default : No
Forced : No

Text #2
ID : 4
Format : UTF-8
Codec ID : S_TEXT/UTF8
Codec ID/Info : UTF-8 Plain Text
Language : English
Default : No
Forced : No

Menu
00:00:00.000 : :Chapter 01
00:05:30.079 : :Chapter 02
00:13:55.835 : :Chapter 03
00:24:35.640 : :Chapter 04
00:3
ea698e9f5911e43b0ec9b16d212cb0c808102397Запретная зона / Chernobyl Diaries (Брэдли Паркер, Ужасы, 2012) [BDRip-AVC, Дубляж, Sub] Запретная зона / Chernobyl Diaries (Брэдли Паркер, Ужасы, 2012) [BDRip-AVC, Дубляж, Sub] " />

Аплоадер: Админ, дата: 25-10-2012, 14:30, торрент скачан: 359 раз

Понравилась раздача? Посмотрите эти:
  • Грязь / Filth (Джон С. Бейрд, криминал, драма, комедия, 2013) [BDRip-AVC, ...
  • FLO / NRG [2012, Pop, Dance, MasterRip]
  • Иллюзия обмана / Now You See Me [Theatrical Cut] (Луи Летерье / Louis Leter ...
  • Место под соснами / The Place Beyond the Pines (Дерек Сиенфрэнс, Драма, Кри ...
  • Даю год / I Give It a Year (Дэн Мазер, Мелодрама, Комедия, 2013) [BDRip-AVC ...
  • О чём молчат девушки (Карен Оганесян, Комедия, 2013) [BDRip-AVC, Не требует ...
  • Синистер / Sinister (Скотт Дерриксон, ужасы, детектив, 2012) [BDRip-AVC, Ду ...
  • 007: Координаты «Скайфолл» / Skyfall (Сэм Мендес, Боевик, триллер, криминал ...
  • Хорошо быть тихоней / The Perks of Being a Wallflower (Стивен Чбоски, Драма ...
  • [Трейлер] Припять / Chernobyl Diaries (Брэдли Паркер, ужасы, триллер) [HD, ...
  • Немножко женаты / The Five-Year Engagement (Николас Столлер, Мелодрама, ком ...
  • Красные огни / Red Lights (Родриго Кортес, Ужасы, триллер, драма, 2012) [BD ...
  • Запретная зона / Chernobyl Diaries (Брэд Паркер, Ужасы, 2012) [HDRip, Дубля ...
  • Запретная зона / Chernobyl Diaries (Брэдли Паркер, Ужасы, 2012) [BDRip-AVC, ...
  • Запретная зона / Chernobyl Diaries (Брэдли Паркер, ужасы, 2012) [HDRip-AVC, ...
  • Запретная зона / Chernobyl Diaries (Брэд Паркер, Ужасы , 2012) [BDRip, Дубл ...
  • Схватка / The Grey (Джо Карнахан, Боевик, 2012) [BDRip 720p, Профессиональн ...
  • Ю-571 / U-571 (Джонатан Мостоу, Боевик, 2000) [BDRip - AVC, Дубляж + Субтит ...
  • Хижина в лесу / The Cabin in the Woods (Дрю Годдард, Ужасы, фантастика, три ...
  • Запретная зона / Chernobyl Diaries (Брэдли Паркер, Ужасы, 2012) [BDRip (108 ...
  • Патруль / End of Watch (Дэвид Эйр, Триллер, драма, криминал, 2012) [BDRip 7 ...
  • Явление / The Apparition (Тодд Линкольн, Ужасы, триллер, 2012) [BDRip 720p, ...
  • Mylene Farmer / Du Temps [2011, Pop, HDTVRip]
  • Mylene Farmer / Bleu Noir [2011, Pop, HDTVRip]
  • Коллекционер / The Collector (Маркус Данстэн, Ужасы, триллер, 2009) [BDRip- ...
  • Информация
    Посетители, находящиеся в группе Гости, не могут оставлять комментарии к данной публикации.