вход на сайт

Имя пользователя :
Пароль :

Восстановление пароля Регистрация
Адский бункер: Черное Солнце / Outpost: Black Sun (Стив Баркер, ужасы, боевик, 2012) [BDRip-AVC, Профессиональный (многоголосый, закадровый), Оригинал (английский)]
Рейтинг:
(голосов: 1)



[img]{THEME}/images/logopost.png[/img]



«Адский бункер: Черное Солнце / Outpost: Black Sun»

«Война в аду»

Информация о фильме
Год выпуска: 2012
Страна: Великобритания
Производство: Black Camel Pictures
Жанр: ужасы, боевик

Режиссёр: Стив Баркер / Steve Barker
В ролях: Катрин Стэдмен, Ричард Койл, Али Крэйг, Ник Неверн, Даниэль Кальтаджироне, Гари МакДональд, Джон П. Арнольд, Филип Бэррэтт, Мартин Белл, Пол Бирчард, Элис Да Кунья

Перевод: Профессиональный (многоголосый, закадровый), Оригинал (английский)
Озвучка: R5
Субтитры: нет

Описание
Научные разработки, которые велись немцами во время Второй мировой войны, по созданию бессмертных солдат не прошли даром. Уже в наши дни бойцы НАТО сталкиваются с батальоном зомби-солдат нацистской Германии из числа штурмовиков. Противостоять восставшим мертвецам практически невозможно, но еще более сложная задача стоит перед героями фильма — найти и уничтожить источник воскрешающей армии, грозящей миру Четвёртым Рейхом…




Тех.Данные
Качество: BDRip-AVC
Продолжительность: ~ 01:41:10 часа

Формат: Matroska-MKV-
Видео кодек: AVC [email protected]
Аудио кодек: Audio Coding 3
Видео: 1024x428 (2,40:1), 23,97 fps, AVC ~1535 kbps avg, 0.146 bit/pixel
Аудио: 48.00 kHz, AC3 Dolby Digital, 3/2 (L,C,R,l,r) + LFE ch, ~384 kbps Rus
Аудио: 48.00 kHz, AC3 Dolby Digital, 2/0 (L,R) ch, ~128 kbps Eng

Бюджет: $3 000 000
Премьера (мир): 27 апреля 2012
Премьера (РФ): 2 августа 2012, «Top Film Distribution»

MediaInfo ▼TextФормат : Matroska
Версия формата : Version 2
Размер файла : 1,44 Гбайт
Продолжительность : 1 ч. 41 м.
Общий поток : 2044 Кбит/сек
Название фильма : Адский бункер: Черное Солнце / Outpost: Black Sun (2012) BDRip-AVC rip by Rulya74
Дата кодирования : UTC 2012-10-20 04:45:48
Программа кодирования : mkvmerge v5.7.0 (The Whirlwind) built on Jul 8 2012 20:08:51
Библиотека кодирования : libebml v1.2.3 + libmatroska v1.3.0

Видео
Идентификатор : 1
Формат : AVC
Формат/Информация : Advanced Video Codec
Профиль формата : [email protected]
Параметр CABAC формата : Да
Параметр ReFrames формата : 10 кадров
Идентификатор кодека : V_MPEG4/ISO/AVC
Продолжительность : 1 ч. 41 м.
Битрейт : 1535 Кбит/сек
Ширина : 1024 пикселя
Высота : 428 пикселей
Соотношение сторон : 2,40:1
Частота кадров : 23,976 кадра/сек
Цветовое пространство : YUV
Субдискретизация насыщенности : 4:2:0
Битовая глубина : 8 бит
Тип развёртки : Прогрессивная
Бит/(Пиксели*Кадры) : 0.146
Размер потока : 1,05 Гбайт (73%)
Библиотека кодирования : x264 core 128 r2216 198a7ea
Настройки программы : cabac=1 / ref=10 / deblock=1:-1:-1 / analyse=0x3:0x113 / me=umh / subme=10 / psy=1 / psy_rd=1.08:0.10 / mixed_ref=1 / me_range=32 / chroma_me=1 / trellis=2 / 8x8dct=1 / cqm=0 / deadzone=21,11 / fast_pskip=0 / chroma_qp_offset=-3 / threads=2 / lookahead_threads=1 / sliced_threads=0 / nr=0 / decimate=1 / interlaced=0 / bluray_compat=0 / constrained_intra=0 / bframes=10 / b_pyramid=2 / b_adapt=2 / b_bias=0 / direct=3 / weightb=1 / open_gop=0 / weightp=2 / keyint=240 / keyint_min=22 / scenecut=40 / intra_refresh=0 / rc_lookahead=40 / rc=2pass / mbtree=1 / bitrate=1535 / ratetol=1.0 / qcomp=0.60 / qpmin=0 / qpmax=69 / qpstep=4 / cplxblur=20.0 / qblur=0.5 / ip_ratio=1.40 / aq=2:1.00
Default : Да
Forced : Нет

Аудио #1
Идентификатор : 2
Формат : AC-3
Формат/Информация : Audio Coding 3
Расширение режима : CM (complete main)
Идентификатор кодека : A_AC3
Продолжительность : 1 ч. 41 м.
Вид битрейта : Постоянный
Битрейт : 384 Кбит/сек
Каналы : 6 каналов
Расположение каналов : Front: L C R, Side: L R, LFE
Частота : 48,0 КГц
Битовая глубина : 16 бит
Метод сжатия : С потерями
Размер потока : 278 Мбайт (19%)
Заголовок : Многоголосый закадровый [R5]
Язык : Russian
Default : Да
Forced : Нет

Аудио #2
Идентификатор : 3
Формат : AC-3
Формат/Информация : Audio Coding 3
Расширение режима : CM (complete main)
Идентификатор кодека : A_AC3
Продолжительность : 1 ч. 41 м.
Вид битрейта : Постоянный
Битрейт
a620738908a30cdca5b71d6e8a0d6d5d6d52abddАдский бункер: Черное Солнце / Outpost: Black Sun (Стив Баркер, ужасы, боевик, 2012) [BDRip-AVC, Профессиональный (многоголосый, закадровый), Оригинал (английский)] Адский бункер: Черное Солнце / Outpost: Black Sun (Стив Баркер, ужасы, боевик, 2012) [BDRip-AVC, Профессиональный (многоголосый, закадровый), Оригинал (английский)] " />

Аплоадер: Админ, дата: 20-10-2012, 12:51, торрент скачан: 359 раз

Понравилась раздача? Посмотрите эти:
  • Ночь страха 2: Свежая кровь / Fright Night 2: New Blood (Эдуардо Родригез, ...
  • Ночь страха 2: Свежая кровь / Fright Night 2: New Blood (Эдуардо Родригез, ...
  • Погнали! / Getaway (Кортни Соломон, боевик, криминал, 2013) [BDRip 1080p, П ...
  • Погнали! / Getaway (Кортни Соломон, боевик, криминал, 2013) [BDRip-AVC, Про ...
  • Филадельфия / Philadelphia (Джонатан Демме, Драма, 1993) [BDRip-AVC, Профес ...
  • Никто не выжил / No One Lives (Рюхэй Китамура, Триллер, ужасы, 2012) [BDRip ...
  • Летучий отряд Скотланд-Ярда / The Sweeney (Ник Лав, Боевик, драма, криминал ...
  • Невероятный Бёрт Уандерстоун / The Incredible Burt Wonderstone (Дон Скардин ...
  • Залив / The Bay (Барри Левинсон, Ужасы, фантастика, триллер, 2012) [BDRip-A ...
  • Порочные игры / Stoker (Пак Чхан Ук, Триллер, драма, детектив, 2013) [BDRip ...
  • Голливудский мусор / Garbage (Филипп Волкен, драма, комедия, 2013) [HDTVRip ...
  • Миллион для чайников / The Brass Teapot (Рамаа Мосли, драма, биография, ист ...
  • Рикошет / Ricochet (Ник Гомез, драма, детектив, 2011) [BDRip-AVC, Профессио ...
  • Подземелье драконов / Dungeons & Dragons (Кортни Соломон, Фэнтези, боевик, ...
  • Крученый мяч / Trouble with the Curve (Роберт Лоренц, Драма, 2012) [BDRip-A ...
  • Толстяк на ринге / Here Comes the Boom (Фрэнк Корачи, Боевик, комедия, 2012 ...
  • Суррогат / The Sessions (Бен Луин, Драма, 2012) [BDRip-AVC, Профессиональны ...
  • Образец 47 / Marvel One-Shot: Item 47 (Луис Д’Эспозито, короткометражка, фа ...
  • Адский бункер: Черное Солнце / Outpost: Black Sun (Стив Баркер, ужасы, боев ...
  • Эд Вуд / Ed Wood (Тим Бёртон, драма, комедия, биография, 1994) [BDRip-AVC, ...
  • Поворот не туда 5 / Wrong Turn 5 (Деклан О’Брайэн, ужасы, триллер, 2012) [B ...
  • Адский бункер: Черное Солнце / Outpost: Black Sun (Стив Баркер, ужасы, боев ...
  • Адский бункер: Черное Солнце / Outpost: Black Sun (Стив Баркер, ужасы, боев ...
  • Адский бункер: Черное Солнце / Outpost: Black Sun (Стив Баркер, ужасы, боев ...
  • Адский бункер: Черное Солнце / Outpost: Black Sun (Стив Баркер, ужасы, боев ...
  • Информация
    Посетители, находящиеся в группе Гости, не могут оставлять комментарии к данной публикации.