вход на сайт

Имя пользователя :
Пароль :

Восстановление пароля Регистрация
Запретная зона / Chernobyl Diaries (Брэдли Паркер, Ужасы, 2012) [BDRip-AVC, Дубляж, Оригинал (английский), Sub]
Рейтинг:
(голосов: 1)



[img]{THEME}/images/logopost.png[/img]



Запретная зона / Chernobyl Diaries
«Десять лет назад правительство разрешило экскурсии в Мёртвый город. Они утверждали, что это безопасно... они ошибались»

Год выпуска: 2012
Страна: США
Производство: Alcon Entertainment, FilmNation Entertainment
Жанр: Ужасы

Режиссёр: Брэдли Паркер
В ролях: Ингрид Болсай Бердал, Дмитрий Дьяченко, Оливия Дадли, Девин Келли, Джесси МакКартни, Натан Филлипс, Джонатан Садовский, Милош Тимотиевич, Милутин Милошевич, Иван Джорджевич

Перевод: Дубляж, Оригинал (английский)
Субтитры: русские (полные, by 107miller), английские (полные)

Описание: Шестеро молодых туристов-экстремалов прибыли на каникулы в Украину. Узнав о том, что в Зону отчуждения устраиваются экскурсии, они нанимают гида и отправляются за незабываемыми впечатлениями. И таковые не заставляют их долго ждать. Казалось, радиоактивный город пуст и заброшен. Там не осталось ничего живого. Но как только солнце прячется за горизонт, Припять оживает. Нечеловеческие крики сотрясают ночной воздух. Незадачливых путешественников охватывают ужас и паника. Они понимают, что не одни в этом мёртвом городе.



Качество: BDRip-AVC
Продолжительность:01:28:23 час.

Формат: MKV
Видео кодек: x264
Аудио кодек: AC3
Видео: 1152x622 (1.85:1), 23.976 fps, x264 ~2 705 kbps avg, 0.157 bit/pixel
Аудио#1: 48 kHz, AC3 Dolby Digital, 3/2 (L,C,R,l,r) + LFE ch, ~384 kbps - (Дубляж)
Аудио#2: 48 kHz, AC3 Dolby Digital, 3/2 (L,C,R,l,r) + LFE ch, ~448 kbps - (Оригинал)

Дата премьеры (мир): 24 мая 2012
Дата премьеры (РФ): 24 мая 2012, «Top Film Distribution»

MediaInfo| x264 ▼
x264 info ▼ x264 [info]: frame I:724 Avg QP:15.34 size: 94346
x264 [info]: frame P:29450 Avg QP:19.13 size: 28791
x264 [info]: frame B:96970 Avg QP:22.75 size: 9040
x264 [info]: consecutive B-frames: 2.6% 3.4% 10.2% 20.8% 22.5% 32.2% 3.3% 0.7% 1.8% 2.5%


General
Complete name : Chernobyl.Diaries.2012.BDRip-AVC.Dub.mkv
Format : Matroska
Format version : Version 2
File size : 2.18 GiB
Duration : 1h 28mn
Overall bit rate : 3 539 Kbps
Encoded date : UTC 2012-10-10 17:55:08
Writing application : mkvmerge v5.4.0 (Piper) built on Mar 10 2012 13:34:39
Writing library : libebml v1.2.3 + libmatroska v1.3.0

Video
ID : 1
Format : AVC
Format/Info : Advanced Video Codec
Format profile : [email protected]
Format settings, CABAC : Yes
Format settings, ReFrames : 12 frames
Codec ID : V_MPEG4/ISO/AVC
Duration : 1h 28mn
Bit rate : 2 705 Kbps
Width : 1 152 pixels
Height : 622 pixels
Display aspect ratio : 1.85:1
Frame rate : 23.976 fps
Color space : YUV
Chroma subsampling : 4:2:0
Bit depth : 8 bits
Scan type : Progressive
Bits/(Pixel*Frame) : 0.157
Stream size : 1.63 GiB (74%)
Title : Chernobyl Diaries 2012 BDRip-AVC
Writing library : x264 core 122 r2184 5c85e0a
Encoding settings : cabac=1 / ref=12 / deblock=1:-3:-3 / analyse=0x3:0x113 / me=umh / subme=11 / psy=1 / psy_rd=1.10:0.00 / mixed_ref=1 / me_range=24 / chroma_me=1 / trellis=2 / 8x8dct=1 / cqm=0 / deadzone=21,11 / fast_pskip=1 / chroma_qp_offset=-2 / threads=6 / sliced_threads=0 / nr=0 / decimate=1 / interlaced=0 / bluray_compat=0 / constrained_intra=0 / bframes=9 / b_pyramid=2 / b_adapt=2 / b_bias=0 / direct=3 / weightb=1 / open_gop=0 / weightp=2 / keyint=250 / keyint_min=23 / scenecut=40 / intra_refresh=0 / rc_lookahead=60 / rc=2pass / mbtree=1 / bitrate=2705 / ratetol=1.0 / qcomp=0.60 / qpmin=0 / qpmax=69 / qpstep=4 / cplxblur=20.0 / qblur=0.5 / ip_ratio=1.40 / aq=1:0.90
Default : Yes
Forced : No

Audio #1
ID : 2
Format : AC-3
Format/Info : Audio Coding 3
Mode extension : CM (complete main)
Format settings, Endianness : Big
Codec ID : A_AC3
Duration : 1h 28mn
Bit rate mode : Constant
Bit rate : 384 Kbps
Channel(s) : 6 channels
Channel positions : Front: L C R, Side: L R, LFE
Sampling rate : 48.0 KHz
Bit depth : 16 bits
Compression mode : Lossy
Stream size : 243 MiB (11%)
Title : RUS AC3 384 Kbps 6ch Dub
L
91cc27488c29b87d476beebd055a6383d391e1afЗапретная зона / Chernobyl Diaries (Брэдли Паркер, Ужасы, 2012) [BDRip-AVC, Дубляж, Оригинал (английский), Sub] Запретная зона / Chernobyl Diaries (Брэдли Паркер, Ужасы, 2012) [BDRip-AVC, Дубляж, Оригинал (английский), Sub] " />

Аплоадер: Админ, дата: 11-10-2012, 15:34, торрент скачан: 359 раз

Понравилась раздача? Посмотрите эти:
  • Паркер / Parker (Тейлор Хэкфорд, Боевик, триллер, криминал, 2013) [BDRip 7 ...
  • Место под соснами / The Place Beyond the Pines (Дерек Сиенфрэнс, Драма, Кри ...
  • Семь психопатов / Seven Psychopaths (Мартин МакДона, Комедия, криминал, 201 ...
  • Жизнь Пи / Life Of Pi (Энг Ли, Драма, приключения, 2012) [BDRip-AVC, Дубляж ...
  • Синистер / Sinister (Скотт Дерриксон, ужасы, детектив, 2012) [BDRip-AVC, Ду ...
  • Хорошо быть тихоней / The Perks of Being a Wallflower (Стивен Чбоски, Драма ...
  • Черный дрозд / Deadfall (Штефан Руцовицки, Триллер, драма, криминал, 2012) ...
  • [Трейлер] Припять / Chernobyl Diaries (Брэдли Паркер, ужасы, триллер) [HD, ...
  • Запретная зона / Chernobyl Diaries (Брэд Паркер, Ужасы, 2012) [HDRip, Дубля ...
  • Запретная зона / Chernobyl Diaries (Брэдли Паркер, Ужасы, 2012) [BDRip-AVC, ...
  • Патруль / End of Watch (Дэвид Эйр, Триллер, драма, криминал, 2012) [BDRip-A ...
  • Запретная зона / Chernobyl Diaries (Брэдли Паркер, ужасы, 2012) [HDRip-AVC, ...
  • Запретная зона / Chernobyl Diaries (Брэд Паркер, Ужасы , 2012) [BDRip, Дубл ...
  • «Весёлые» каникулы / Get the Gringo (Адриан Грюнберг, Боевик, комедия, 2012 ...
  • Ворон / The Raven (Джеймс МакТиг, Триллер, детектив, 2012) [BDRip 720p, Дуб ...
  • Пираньи 3DD / Piranha 3DD (Джон Гулажер, ужасы, триллер, комедия, 2012) [BD ...
  • Красные огни / Red Lights (Родриго Кортес, Ужасы, триллер, драма, 2012) [BD ...
  • Запретная зона / Chernobyl Diaries (Брэдли Паркер, Ужасы, 2012) [BDRip (108 ...
  • Супер Майк / Magic Mike (Стивен Содерберг, Драма, комедия, 2012) [BDRip 720 ...
  • Супер Майк / Magic Mike (Стивен Содерберг, Драма, комедия, 2012) [BDRip 108 ...
  • Цунами 3D / Bait (Кимбл Рендалл, Ужасы, боевик, триллер, 2011) [BDRip 720p ...
  • На Дороге / On The Road (Уолтер Саллес, Драма, приключения, 2012) [BDRip 72 ...
  • Красные огни / Red Lights (Родриго Кортес, триллер, драма, детектив, 2012) ...
  • Патруль / End of Watch (Дэвид Эйр, Триллер, драма, криминал, 2012) [BDRip 7 ...
  • Явление / The Apparition (Тодд Линкольн, Ужасы, триллер, 2012) [BDRip 720p, ...
  • Информация
    Посетители, находящиеся в группе Гости, не могут оставлять комментарии к данной публикации.