вход на сайт

Имя пользователя :
Пароль :

Восстановление пароля Регистрация
Пятница 13-е Часть 2 / Friday the 13th Part 2 (Стив Майнер, ужасы, триллер, детектив, 1981) [BDRip - AVC, Профессиональный (многоголосый закадровый) + Авторский (одноголосый закадровый)]
Рейтинг:
(голосов: 1)



[img]{THEME}/images/logopost.png[/img]



Пятница 13-е Часть 2 / Friday the 13th Part 2
«The day you count on for terror is not over»

Год выпуска: 1981
Страна: США
Производство: Georgetown Productions Inc.
Жанр: ужасы, триллер, детектив

Режиссёр: Стив Майнер | Steve Miner
В ролях: Бетси Палмер, Эми Стил, Джон Фьюри, Эдриенн Кинг, Керстен Бэйкер, Уоррингтон Жиллет, Стю Чарно

Перевод: 1 - Профессиональный (многоголосый закадровый)
2 - Авторский (одноголосый закадровый | Ю.Живов
Субтитры: Отсутствуют

Описание:
После дикой кровавой бани, случившейся в «Хрустальном Озере», — лагерь закрыли, а зловещий Джейсон Вурхиз стал жуткой легендой, страшной историей, которую ночами рассказывают у костра.
Но вот, пять лет спустя, в летнем лагере, неподалёку от печально знаменитого «Хрустального озера», компанию беспечных молодых людей ждёт новая, «незабываемая» встреча с Джейсоном. Он страстно хочет поучаствовать в следующем раунде «увлекательной» игры «Убей вожатого!». Для каждой из своих жертв Джейсон приготовил изощрённую и мучительную смерть.



Дата премьеры (мир): 1 мая 1981

Качество: BDRip - AVC | исх. Friday the 13th Part 2.BDRemux 1080p
Продолжительность: 01:35:27 час.

Формат: MKV
Видео кодек: H.264
Аудио кодек: AC3
Видео:1024x576 (16:9), 23.976 fps, H.264 ~4 413 kbps avg, 0.312 bit/pixel
Аудио #1: 48 kHz, AC3, 2 (L R) ch, ~192.00 kbps avg | Профессиональный (многоголосый закадровый)
Аудио #2: 48 kHz, AC3, 2 (L R) ch, ~192.00 kbps avg | Авторский (одноголосый закадровый) | Ю.Живов
MediaInfo ▼General
Unique ID : 228702686541381272522242216215333565166 (0xAC0E89054DDED6DCB3268AAF92B3F2EE)
Complete name : friday.the.13th.part.2.mkv
Format : Matroska
Format version : Version 2
File size : 2.92 GiB
Duration : 1h 26mn
Overall bit rate : 4 798 Kbps
Encoded date : UTC 2012-08-01 19:11:14
Writing application : mkvmerge v5.6.0 (Kenya Kane) built on May 27 2012 16:44:04
Writing library : libebml v1.2.3 + libmatroska v1.3.0
Video
ID : 1
Format : AVC
Format/Info : Advanced Video Codec
Format profile : [email protected]
Format settings, CABAC : Yes
Format settings, ReFrames : 14 frames
Codec ID : V_MPEG4/ISO/AVC
Duration : 1h 26mn
Bit rate : 4 413 Kbps
Width : 1 024 pixels
Height : 576 pixels
Display aspect ratio : 16:9
Frame rate : 23.976 fps
Color space : YUV
Chroma subsampling : 4:2:0
Bit depth : 8 bits
Scan type : Progressive
Bits/(Pixel*Frame) : 0.312
Stream size : 2.62 GiB (90%)
Title : Friday the 13th Part 2
Writing library : x264 core 125 r2200 999b753
Encoding settings : cabac=1 / ref=14 / deblock=1:-1:-1 / analyse=0x3:0x113 / me=umh / subme=11 / psy=1 / psy_rd=1.00:0.15 / mixed_ref=1 / me_range=32 / chroma_me=1 / trellis=2 / 8x8dct=1 / cqm=0 / deadzone=21,11 / fast_pskip=0 / chroma_qp_offset=-3 / threads=12 / lookahead_threads=2 / sliced_threads=0 / nr=0 / decimate=1 / interlaced=0 / bluray_compat=0 / constrained_intra=0 / bframes=16 / b_pyramid=2 / b_adapt=2 / b_bias=0 / direct=3 / weightb=1 / open_gop=0 / weightp=2 / keyint=240 / keyint_min=23 / scenecut=40 / intra_refresh=0 / rc_lookahead=40 / rc=2pass / mbtree=1 / bitrate=4413 / ratetol=1.0 / qcomp=0.70 / qpmin=10 / qpmax=51 / qpstep=4 / cplxblur=20.0 / qblur=0.5 / ip_ratio=1.40 / aq=2:1.00
Language : English
Default : Yes
Forced : No
Audio #1
ID : 2
Format : AC-3
Format/Info : Audio Coding 3
Mode extension : CM (complete main)
Format settings, Endianness : Big
Codec ID : A_AC3
Duration : 1h 26mn
Bit rate mode : Constant
Bit rate : 192 Kbps
Channel(s) : 2 channels
Channel positions : Front: L R
Sampling rate : 48.0 KHz
Bit depth : 16 bits
Compression mode : Lossy
Stream size : 119 MiB (4%)
Title : MVO
Language : Russian
Default : Yes
Forced : No
Audio #2
ID : 3
Format : AC-3
Format/Info : Audio Coding 3
Mode extension : CM (complete main)
Format settings, Endianness : Big
Codec I
dffdeecf122a5d19b28a5805ecf9394052df766bПятница 13-е Часть 2 / Friday the 13th Part 2 (Стив Майнер, ужасы, триллер, детектив, 1981) [BDRip - AVC, Профессиональный (многоголосый закадровый) + Авторский (одноголосый закадровый)] Пятница 13-е Часть 2 / Friday the 13th Part 2 (Стив Майнер, ужасы, триллер, детектив, 1981) [BDRip - AVC, Профессиональный (многоголосый закадровый) + Авторский (одноголосый закадровый)] " />

Аплоадер: Админ, дата: 4-08-2012, 16:00, торрент скачан: 359 раз

Понравилась раздача? Посмотрите эти:
  • Ледяной / The Iceman (Ариэль Вромен, драма, криминал, биография, 2013) [BDR ...
  • Пятница 13-е / Friday the 13th (Маркус Ниспел, Ужасы, 2009) [BDRip-AVC, Дуб ...
  • Бессмертные души / Soul Survivors (Стивен Карпентер, ужасы, триллер, драма, ...
  • [Антология] Пятница 13-е / Friday the 13 части с 1 по 9 + Джейсон X + Фредд ...
  • Обряд / The Rite (Микаэль Хафстрем, ужасы, триллер, драма, 2011) [BDRip-AVC ...
  • Поворот не туда 4 / Wrong Turn 4 (Деклан О’Брайэн, ужасы, боевик, детектив, ...
  • Остановка / Rest Stop: Dead Ahead (Джон Шибан, ужасы, триллер, 2006) [BDRip ...
  • Пир / Feast (Джон Гулажер, ужасы, боевик, триллер, комедия, 2005) [BDRip-AV ...
  • Пришелец / Impostor (Гэри Фледер, фантастика, боевик, триллер, драма, 2001) ...
  • Ночное дежурство / Nightwatch (Оле Борнедаль, ужасы, триллер, драма, 1997) ...
  • Пятница 13-е / Friday the 13th (Шон С. Каннингэм, ужасы, триллер, детектив, ...
  • Охота за "Красным Октябрём" / The Hunt for "Red October" (Джон МакТирнан, б ...
  • Пятница 13-е Часть III / Friday the 13th Part III (Стив Майнер, ужасы, трил ...
  • Любимые / The Loved Ones (Шон Бирн, ужасы, триллер, драма, 2009) [BDRip-AVC ...
  • Чернокнижник / Warlock (Стив Майнер, ужасы, фэнтези, боевик, триллер, 1989) ...
  • Красавчик Джонни / Johnny Handsome (Уолтер Хилл, Триллер, драма, криминал, ...
  • Китайский квартал / Chinatown (Роман Полански, Триллер, драма, криминал, де ...
  • Пираньи 3DD / Piranha 3DD (Джон Гулажер, ужасы, триллер, комедия, 2012) [BD ...
  • [3D] Пятница, 13-е. Часть 3 / Friday the 13th Part III (Стив Майнер, ужасы, ...
  • Хостел 3 / Hostel: Part III (Скотт Спигел / Scott Spiegel, ужасы, триллер, ...
  • Информация
    Посетители, находящиеся в группе Гости, не могут оставлять комментарии к данной публикации.