вход на сайт

Имя пользователя :
Пароль :

Восстановление пароля Регистрация
Ночное дежурство / Nightwatch (Оле Борнедаль, ужасы, триллер, драма, 1997) [BDRip - AVC, Профессиональный (двухголосый закадровый) + Авторский + Оригинал + SUB
Рейтинг:
(голосов: 1)



[img]{THEME}/images/logopost.png[/img]



Ночное дежурство / Nightwatch
«Hes a full-time college student who just took the wrong part-time job. Now hes the final piece in a brilliant serial killers puzzle.»

Год выпуска: 1997
Страна: США
Производство: Dimension Films, Michael Obel Productions, Thura Film
Жанр: ужасы, триллер, драма

Режиссёр: Оле Борнедаль | Ole Bornedal
В ролях: Юэн МакГрегор, Патриция Аркетт, Джош Бролин, Лорен Грэм, Ник Нолти, Брэд Дуриф, Аликс Коромзай, Лонни Чэпмен, Эрик Андерсон, Скотт Баркхолдер

Перевод: 1 - Профессиональный (двухголосый, закадровый) | НТВ+
2 - Авторский(одноголосый, закадровый) | Ю.Живов
3 - Оригинал (Английский)
Субтитры: Английские

Описание:
Как часто бывает в жизни, все началось с невинного желания заработать. Молодой студент права по имени Мартин устроился ночным сторожем в больницу. Он был совершенно уверен, что нашел «непыльную» работу, где никто не будет его отвлекать и не станет мешать готовиться к занятиям. Но Мартин жутко ошибся…
Случилось так, что в морг этой больницы свозят трупы девушек, жестоко убитых орудующим в городе кровожадным серийным убийцей. В морге начинают происходить очень странные вещи. В безмолвный мир мертвых приходят живые, и становится по настоящему страшно. Ведь мертвые уже не могут себя защитить…



Дата премьеры (мир): 17 апреля 1998

Качество: BDRip - AVC | BDRemux 1080p
Продолжительность: 01:41:18 час.

Формат: MKV
Видео кодек: H.264
Аудио кодек: AC3
Видео: 960x414 (2.35:1), 23.976 fps, H.264 ~2 950 kbps avg, 0.310 bit/pixel
Аудио #1: 48 kHz, AC3, 2 (L R) ch, ~192.00 kbps avg | Профессиональный (двухголосый, закадровый) | НТВ+
Аудио #2: 48 kHz, AC3, 3/2 (L,C,R,l,r) + LFE ch, ~448.00 kbpsavg | Авторский(одноголосый, закадровый) | Ю.Живов
Аудио #3: 48 kHz, AC3, 3/2 (L,C,R,l,r) + LFE ch, ~448.00 kbps avg | Оригинал (Английский)
MediaInfo ▼Video
ID : 1
Format : AVC
Format/Info : Advanced Video Codec
Format profile : [email protected]
Format settings, CABAC : Yes
Format settings, ReFrames : 8 frames
Codec ID : V_MPEG4/ISO/AVC
Duration : 1h 41mn
Bit rate : 2 950 Kbps
Width : 960 pixels
Height : 414 pixels
Display aspect ratio : 2.35:1
Frame rate : 23.976 fps
Color space : YUV
Chroma subsampling : 4:2:0
Bit depth : 8 bits
Scan type : Progressive
Bits/(Pixel*Frame) : 0.310
Stream size : 2.03 GiB (71%)
Writing library : x264 core 124 r2197 69a0443
Encoding settings : cabac=1 / ref=8 / deblock=1:-3:-2 / analyse=0x3:0x133 / me=umh / subme=10 / psy=1 / psy_rd=1.00:0.15 / mixed_ref=1 / me_range=32 / chroma_me=1 / trellis=2 / 8x8dct=1 / cqm=0 / deadzone=21,11 / fast_pskip=0 / chroma_qp_offset=-3 / threads=6 / sliced_threads=0 / nr=0 / decimate=0 / interlaced=0 / bluray_compat=0 / constrained_intra=0 / bframes=8 / b_pyramid=2 / b_adapt=2 / b_bias=0 / direct=3 / weightb=1 / open_gop=0 / weightp=2 / keyint=250 / keyint_min=23 / scenecut=40 / intra_refresh=0 / rc_lookahead=40 / rc=2pass / mbtree=0 / bitrate=2950 / ratetol=1.0 / qcomp=0.60 / qpmin=0 / qpmax=69 / qpstep=4 / cplxblur=20.0 / qblur=0.5 / vbv_maxrate=20000 / vbv_bufsize=25000 / nal_hrd=none / ip_ratio=1.40 / pb_ratio=1.30 / aq=1:1.00
Language : English
Default : Yes
Forced : No
Audio #1
ID : 2
Format : AC-3
Format/Info : Audio Coding 3
Mode extension : CM (complete main)
Format settings, Endianness : Big
Codec ID : A_AC3
Duration : 1h 41mn
Bit rate mode : Constant
Bit rate : 192 Kbps
Channel(s) : 2 channels
Channel positions : Front: L R
Sampling rate : 48.0 KHz
Bit depth : 16 bits
Compression mode : Lossy
Stream size : 139 MiB (5%)
Title : Двухголосый закадровый, НТВ+
Language : Russian
Default : Yes
Forced : No
Audio #2
ID : 3
Format : AC-3
Format/Info : Audio Coding 3
Mode extension : CM (complete main)
Format settings, Endianness : Big
Codec ID : A_AC3
Duration : 1h 41m
d20f0f3538d461538e6a1a7e71338a265d7e89a0Ночное дежурство / Nightwatch (Оле Борнедаль, ужасы, триллер, драма, 1997) [BDRip - AVC, Профессиональный (двухголосый закадровый) + Авторский + Оригинал + SUB Ночное дежурство / Nightwatch (Оле Борнедаль, ужасы, триллер, драма, 1997) [BDRip - AVC, Профессиональный (двухголосый закадровый) + Авторский + Оригинал + SUB " />

Аплоадер: Админ, дата: 29-07-2012, 19:31, торрент скачан: 359 раз

Понравилась раздача? Посмотрите эти:
  • Ночной сторож / Nattevagten (Оле Борнедаль / Ole Bornedal, Ужасы, Триллер, ...
  • Пастырь / Priest (Скотт Чарльз Стюарт, ужасы, фантастика, боевик, триллер, ...
  • Железная леди / The Iron Lady (Филлида Ллойд, драма, биография, история, 20 ...
  • Птицы / The Birds (Альфред Хичкок, Ужасы, триллер, 1963) [BDRip-AVC, Профес ...
  • Водитель / The Driver (Уолтер Хилл, Боевик, триллер, драма, криминал, 1978) ...
  • Обряд / The Rite (Микаэль Хафстрем, ужасы, триллер, драма, 2011) [BDRip-AVC ...
  • Американский психопат / American Psycho (Мэри Хэррон, триллер, драма, крими ...
  • Под откос / Derailed (Боб Мисиоровски, боевик, триллер, 2002) [HDRip-AVC, П ...
  • Репортаж из преисподней / [REC] 2 (Жауме Балагуэро, Пако Пласа, ужасы, трил ...
  • Остановка 2: Не оглядывайся назад / Rest Stop: Dont Look Back (Шоун Папазян ...
  • Пир / Feast (Джон Гулажер, ужасы, боевик, триллер, комедия, 2005) [BDRip-AV ...
  • Ночное дежурство / Nightwatch (Уле Борнедаль, ужасы, триллер, драма, 1997) ...
  • Спаун / Отродие / Spawn (Марк Э. З. Диппе, фэнтези, боевик, триллер, 1997) ...
  • Ночное дежурство / Nightwatch (Уле Борнедаль, ужасы, триллер, драма, 1997) ...
  • Пришелец / Impostor (Гэри Фледер, фантастика, боевик, триллер, драма, 2001) ...
  • Ночное дежурство / Nightwatch (Уле Борнедаль, ужасы, триллер, драма, 1997) ...
  • Пятница 13-е / Friday the 13th (Шон С. Каннингэм, ужасы, триллер, детектив, ...
  • Пятница 13-е Часть 2 / Friday the 13th Part 2 (Стив Майнер, ужасы, триллер, ...
  • Охота за "Красным Октябрём" / The Hunt for "Red October" (Джон МакТирнан, б ...
  • Пятница 13-е Часть III / Friday the 13th Part III (Стив Майнер, ужасы, трил ...
  • Любимые / The Loved Ones (Шон Бирн, ужасы, триллер, драма, 2009) [BDRip-AVC ...
  • Город воров [Театральная версия] / The Town [Theatrical cut] (Бен Аффлек, т ...
  • Коллекционер 2 / The Collection (Маркус Данстэн, ужасы, боевик, триллер , 2 ...
  • Китайский квартал / Chinatown (Роман Полански, Триллер, драма, криминал, де ...
  • Викинги / Outlander (Ховард МакКейн, Фантастика, боевик, приключения, 2008) ...
  • Информация
    Посетители, находящиеся в группе Гости, не могут оставлять комментарии к данной публикации.