вход на сайт

Имя пользователя :
Пароль :

Восстановление пароля Регистрация
Ночное дежурство / Nightwatch (Уле Борнедаль, ужасы, триллер, драма, 1997) [BDRip-AVC, Профессиональный (двухголосый, закадровый) + Sub]
Рейтинг:
(голосов: 1)



[img]{THEME}/images/logopost.png[/img]



Ночное дежурство / Nightwatch
«Hes a full-time college student who just took the wrong part-time job. Now hes the final piece in a brilliant serial killers puzzle.»

Год выпуска: 1997
Страна: США
Производство: Dimension Films, Michael Obel Productions, Thura Film
Жанр: ужасы, триллер, драма

Режиссёр: Оле Борнедаль
В ролях: Юэн МакГрегор, Патриция Аркетт, Джош Бролин, Лорен Грэм, Ник Нолти, Брэд Дуриф, Аликс Коромзай, Лонни Чэпмен, Эрик Андерсон, Скотт Баркхолдер

Перевод: Профессиональный (двухголосый, закадровый) - НТВ+ (Ольга Кузнецова и Даниил Эльдаров)
Субтитры: Английские

Описание: Как часто бывает в жизни, все началось с невинного желания заработать. Молодой студент права по имени Мартин устроился ночным сторожем в больницу. Он был совершенно уверен, что нашел «непыльную» работу, где никто не будет его отвлекать и не станет мешать готовиться к занятиям. Но Мартин жутко ошибся…

Случилось так, что в морг этой больницы свозят трупы девушек, жестоко убитых орудующим в городе кровожадным серийным убийцей. В морге начинают происходить очень странные вещи. В безмолвный мир мертвых приходят живые, и становится по настоящему страшно. Ведь мертвые уже не могут себя защитить…



Качество: BDRip-AVC
Продолжительность: 01:41:18 час.

Формат: MKV
Видео кодек: AVC
Аудио кодек: AC3 Dolby Digital
Видео: 780x336 (2.35:1), 23,976 fps, AVC ~1848 kbps avg, 0.294 bit/pixel
Аудио: 48 kHz, AC3, 2/0 (L,R) ch, ~192.00 kbps avg kbps avg - Профессиональный (двухголосый, закадровый) - НТВ+ (Ольга Кузнецова и Даниил Эльдаров)

MediaInfo ▼Video
ID : 1
Format : AVC
Format/Info : Advanced Video Codec
Format profile : [email protected]
Format settings, CABAC : Yes
Format settings, ReFrames : 8 frames
Codec ID : V_MPEG4/ISO/AVC
Duration : 1h 41mn
Bit rate : 1 848 Kbps
Width : 780 pixels
Height : 336 pixels
Display aspect ratio : 2.35:1
Frame rate : 23.976 fps
Color space : YUV
Chroma subsampling : 4:2:0
Bit depth : 8 bits
Scan type : Progressive
Bits/(Pixel*Frame) : 0.294
Stream size : 1.28 GiB (89%)
Writing library : x264 core 124 r2197 69a0443
Encoding settings : cabac=1 / ref=8 / deblock=1:-3:-2 / analyse=0x3:0x133 / me=umh / subme=10 / psy=1 / psy_rd=1.00:0.15 / mixed_ref=1 / me_range=32 / chroma_me=1 / trellis=2 / 8x8dct=1 / cqm=0 / deadzone=21,11 / fast_pskip=0 / chroma_qp_offset=-3 / threads=6 / sliced_threads=0 / nr=0 / decimate=0 / interlaced=0 / bluray_compat=0 / constrained_intra=0 / bframes=8 / b_pyramid=2 / b_adapt=2 / b_bias=0 / direct=3 / weightb=1 / open_gop=0 / weightp=2 / keyint=250 / keyint_min=23 / scenecut=40 / intra_refresh=0 / rc_lookahead=40 / rc=2pass / mbtree=0 / bitrate=1848 / ratetol=1.0 / qcomp=0.60 / qpmin=10 / qpmax=51 / qpstep=4 / cplxblur=20.0 / qblur=0.5 / vbv_maxrate=20000 / vbv_bufsize=20000 / nal_hrd=none / ip_ratio=1.40 / pb_ratio=1.30 / aq=1:1.00
Language : English
Default : Yes
Forced : No
Audio
ID : 2
Format : AC-3
Format/Info : Audio Coding 3
Mode extension : CM (complete main)
Format settings, Endianness : Big
Codec ID : A_AC3
Duration : 1h 41mn
Bit rate mode : Constant
Bit rate : 192 Kbps
Channel(s) : 2 channels
Channel positions : Front: L R
Sampling rate : 48.0 KHz
Bit depth : 16 bits
Compression mode : Lossy
Stream size : 139 MiB (9%)
Language : Russian
Default : Yes
Forced : No
Text
ID : 3
Format : UTF-8
Codec ID : S_TEXT/UTF8
Codec ID/Info : UTF-8 Plain Text
Language : English
Default : No
Forced : No
Menu
00:00:00.000 : en:00:00:00.000
00:05:11.675 : en:00:05:11.675
00:10:41.217 : en:00:10:41.217
00:16:39.633 : en:00:16:39.633
00:21:47.342 : en:00:21:47.342
00:26:16.258 : en:00:26:16.258
00:32:19.050 : en:00:32:19.050
00:37:00.800 : en:00:37:00.800
00:43:24.425 : en:00:43:24.425
00:48:02.717 : en:00:48:02.717
00:52:16.342 : en:00:52:16.342
00:57:04.425 : en:00:57:04.425
01:07:54.550 : en:01:07:54.550
01:19:17.383 : en:01:19:17.383
01:28:34.342 : en:01:28:34.342



e40871ca8acb02aa69ada909f6510aa98e197583Ночное дежурство / Nightwatch (Уле Борнедаль, ужасы, триллер, драма, 1997) [BDRip-AVC, Профессиональный (двухголосый, закадровый) + Sub] Ночное дежурство / Nightwatch (Уле Борнедаль, ужасы, триллер, драма, 1997) [BDRip-AVC, Профессиональный (двухголосый, закадровый) + Sub] " />

Аплоадер: Админ, дата: 18-07-2012, 19:04, торрент скачан: 359 раз

Понравилась раздача? Посмотрите эти:
  • Ночной сторож / Nattevagten (Оле Борнедаль / Ole Bornedal, Ужасы, Триллер, ...
  • Пастырь / Priest (Скотт Чарльз Стюарт, ужасы, фантастика, боевик, триллер, ...
  • Птицы / The Birds (Альфред Хичкок, Ужасы, триллер, 1963) [BDRip-AVC, Профес ...
  • Птицы / The Birds (Альфред Хичкок, Ужасы, триллер, 1963) [BDRip-AVC, Профес ...
  • Шелуха / Husk (Бретт Симмонс, ужасы, триллер, 2011) [BDRip 720p, Профессион ...
  • Поворот не туда 4 / Wrong Turn 4 (Деклан О’Брайэн, ужасы, боевик, детектив, ...
  • Репортаж из преисподней / [REC] 2 (Жауме Балагуэро, Пако Пласа, ужасы, трил ...
  • Остановка 2: Не оглядывайся назад / Rest Stop: Dont Look Back (Шоун Папазян ...
  • Пир / Feast (Джон Гулажер, ужасы, боевик, триллер, комедия, 2005) [BDRip-AV ...
  • Ночное дежурство / Nightwatch (Уле Борнедаль, ужасы, триллер, драма, 1997) ...
  • Спаун / Отродие / Spawn (Марк Э. З. Диппе, фэнтези, боевик, триллер, 1997) ...
  • Пришелец / Impostor (Гэри Фледер, фантастика, боевик, триллер, драма, 2001) ...
  • Ночное дежурство / Nightwatch (Уле Борнедаль, ужасы, триллер, драма, 1997) ...
  • Ночное дежурство / Nightwatch (Оле Борнедаль, ужасы, триллер, драма, 1997) ...
  • Пятница 13-е Часть III / Friday the 13th Part III (Стив Майнер, ужасы, трил ...
  • Любимые / The Loved Ones (Шон Бирн, ужасы, триллер, драма, 2009) [BDRip-AVC ...
  • Абсолютное зло / Meeting Evil (Крис Фишер, триллер, драма, криминал, детект ...
  • Оборотень: Зверь среди нас / Werewolf: The Beast Among Us (Луи Морно, ужасы ...
  • Коллекционер 2 / The Collection (Маркус Данстэн, ужасы, боевик, триллер , 2 ...
  • Семь футов / Seven Below (Кевин Каррауэй, Ужасы, триллер, 2012) [BDRip 720p ...
  • Mylene Farmer / Du Temps [2011, Pop, HDTVRip]
  • Mylene Farmer / Bleu Noir [2011, Pop, HDTVRip]
  • Коллекционер / The Collector (Маркус Данстэн, Ужасы, триллер, 2009) [BDRip- ...
  • Хостел 3 / Hostel: Part III (Скотт Спигел / Scott Spiegel, ужасы, триллер, ...
  • Болото / Venom (Джим Гиллеспи, ужасы, триллер,2005) [BDRip-AVC, Профессиона ...
  • Информация
    Посетители, находящиеся в группе Гости, не могут оставлять комментарии к данной публикации.