вход на сайт

Имя пользователя :
Пароль :

Восстановление пароля Регистрация
Женщина в черном / The Woman in Black (Джеймс Уоткинс / James Watkins, ужасы, триллер, драма, 2012) [BDRip 720p, Дубляж + Оригинал + Sub]
Рейтинг:
(голосов: 1)



[img]{THEME}/images/logopost.png[/img]



Женщина в черном / The Woman in Black

Год выпуска: 2012
Страна: Швеция, Канада, Великобритания
Производство: Alliance Films, Cross Creek Pictures, Exclusive Media Group, Film i Vдst, Filmgate, Filmgate Films, Hammer Film Productions Limited, Talisman Productions, UK Film Council
Жанр: Ужасы, триллер, драма

Режиссёр: Джеймс Уоткинс
В ролях: Дэниэл Рэдклифф, Кьяран Хайндс, Джанет МакТир, Дэвид Бурк, Шон Дули, Эмма Шори, Хэрмон Молли, Софи Стаки, Миша Хэндли, Джессика Рэйне и др.

Перевод: Дубляж + Оригинал
Субтитры: Russian, English [Full, SDH]

Описание: На дворе - конец девятнадцатого века, но, хотя люди пользуются автомобилями, железными дорогами и телеграфом, человек по-прежнему бессилен перед проявлениями сверхъестественного. Молодой лондонский юрист Артур Киппс вынужден оставить своего 4-летнего сына и отправиться в командировку в уединенную северную деревушку, чтобы составить реестр документов, оставшихся от скончавшегося хозяина поместья Ил Марш. Добравшись до места и пообщавшись с негостеприимными местными жителями, он начинает понимать, что над деревушкой нависла тень мрачной тайны. Когда же рядом со старым кладбищем ему на глаза попадается загадочная женщина, одетая в черное, это малозначительное происшествие знаменует начало череды леденящих кровь смертей в семьях обитателей деревни.



Качество: BDRip 720p, | The Woman in Black 2012 1080p Blu-Ray AVC DTS-HD MA 5 1-HDChina | Сэмпл
Продолжительность: 01:35:20 час.

Формат: MKV
Видео кодек: AVC
Аудио кодек: DTS
Видео: 1 280x544, 23.976 fps, 3 136 Kbps, 0.188 Bits/(Pixel*Frame)
Аудио 1: 48 kHz, DTS, 3/2 (L,C,R,l,r) + LFE ch, ~ 1510 kbps avg
Аудио 2: 48 kHz, DTS, 3/2 (L,C,R,l,r) + LFE ch, ~ 1510 kbps avg

Дата премьеры (мир): 3 февраля 2012
Дата премьеры (РФ): 15 марта 2012, «WDSSPR»

"MI" ▼Complete name : Zhenwina.v.chernom.2012.D.BDRip.720p.IRONCLUB.mkv
Format : Matroska
Format version : Version 2
File size : 4.18 GiB
Duration : 1h 35mn
Overall bit rate : 6 280 Kbps
Movie name : IRONCLUB
Encoded date : UTC 2012-06-27 16:58:31
Writing application : mkvmerge v4.9.1 (Ich will) built on Jul 11 2011 23:53:15
Writing library : libebml v1.2.1 + libmatroska v1.1.1

Video
ID : 1
Format : AVC
Format/Info : Advanced Video Codec
Format profile : [email protected]
Format settings, CABAC : Yes
Format settings, ReFrames : 12 frames
Codec ID : V_MPEG4/ISO/AVC
Duration : 1h 35mn
Bit rate : 3 136 Kbps
Width : 1 280 pixels
Height : 544 pixels
Display aspect ratio : 2.35:1
Frame rate : 23.976 fps
Color space : YUV
Chroma subsampling : 4:2:0
Bit depth : 8 bits
Scan type : Progressive
Bits/(Pixel*Frame) : 0.188
Stream size : 2.09 GiB (50%)
Title : The Woman in Black (2012) BDRip 720p
Writing library : x264 core 124 r2197kMod 69a0443
Encoding settings : cabac=1 / ref=12 / deblock=1:-3:-3 / analyse=0x3:0x113 / me=umh / subme=11 / psy=1 / fade_compensate=0.00 / psy_rd=1.25:0.00 / mixed_ref=1 / me_range=16 / chroma_me=1 / trellis=2 / 8x8dct=1 / cqm=0 / deadzone=21,11 / fast_pskip=0 / chroma_qp_offset=-2 / threads=6 / sliced_threads=0 / nr=0 / decimate=0 / interlaced=0 / bluray_compat=0 / constrained_intra=0 / bframes=8 / b_pyramid=2 / b_adapt=2 / b_bias=0 / direct=3 / weightb=1 / open_gop=0 / weightp=2 / keyint=250 / keyint_min=23 / scenecut=40 / intra_refresh=0 / rc=crf / mbtree=0 / crf=17.0000 / qcomp=0.80 / qpmin=0 / qpmax=69 / qpstep=4 / ip_ratio=1.30 / pb_ratio=1.20 / aq=1:0.60
Language : English
Default : Yes
Forced : Yes

Audio #1
ID : 2
Format : DTS
Format/Info : Digital Theater Systems
Codec ID : A_DTS
Duration : 1h 35mn
Bit rate mode : Constant
Bit rate : 1 510 Kbps
Channel(s) : 6 channels
Channel positions : Front: L C R, Side: L R, LFE
Sampling rate : 48.0 KHz
Bit depth : 24 bits
Compression mode : Lossy
Stream size : 1.01 GiB (24%)
Title : DTS 5.1 @ 1536 kbps - Dub, DVD R5
Language : Russian
Default : Yes
Forced : Yes

Audio #2
ID : 3
Format : DTS
Format/Info : Digital Theater Systems
Codec ID : A_DTS
Durat
ba192f2843e2fb1f139fdee82bf84134958e91cfЖенщина в черном / The Woman in Black (Джеймс Уоткинс / James Watkins, ужасы, триллер, драма, 2012) [BDRip 720p, Дубляж + Оригинал + Sub] Женщина в черном / The Woman in Black (Джеймс Уоткинс / James Watkins, ужасы, триллер, драма, 2012) [BDRip 720p, Дубляж + Оригинал + Sub] " />

Аплоадер: Админ, дата: 27-06-2012, 23:23, торрент скачан: 359 раз

Понравилась раздача? Посмотрите эти:
  • Женщина в черном / The Woman in Black (Джеймс Уоткинс, ужасы, триллер, дра ...
  • Мастер / The Master (Пол Томас Андерсон, Драма, 2012) [BDRip 720p, Дубляж, ...
  • Толстяк на ринге / Here Comes the Boom (Фрэнк Корачи, Боевик, комедия, 201 ...
  • Женщина в черном / The Woman in Black (Джеймс Уоткинс / James Watkins, ужас ...
  • Женщина в черном / The Woman in Black (Джеймс Уоткинс / James Watkins, ужас ...
  • Женщина в черном / The Woman in Black (Джеймс Уоткинс / James Watkins, ужас ...
  • Закон доблести / Act of Valor (Майк МакКой, Скотт Во, боевик, триллер, прик ...
  • Женщина в черном / The Woman in Black (Джеймс Уоткинс / James Watkins, уж ...
  • Женщина в черном / The Woman in Black (Джеймс Уоткинс / James Watkins, ужас ...
  • «Весёлые» каникулы / Get the Gringo (Адриан Грюнберг, Боевик, комедия, 2012 ...
  • Женщина в черном / The Woman in Black (Джеймс Уоткинс, Ужасы, триллер, драм ...
  • Ворон / The Raven (Джеймс МакТиг, Триллер, детектив, 2012) [BDRip 720p, Дуб ...
  • Пираньи 3DD / Piranha 3DD (Джон Гулажер, ужасы, триллер, комедия, 2012) [BD ...
  • Люди в черном 3 / Men in Black III (Барри Зонненфельд, Фантастика, боевик, ...
  • Красные огни / Red Lights (Родриго Кортес, Ужасы, триллер, драма, 2012) [BD ...
  • Космополис / Cosmopolis (Дэвид Кроненберг, Триллер, Драма, 2012) [BDRip 720 ...
  • Явление / The Apparition (Тодд Линкольн, Ужасы, триллер, 2012) [BDRip 720p, ...
  • Оборотень: Зверь среди нас / Werewolf: The Beast Among Us (Луи Морно, ужасы ...
  • Коллекционер 2 / The Collection (Маркус Данстэн, ужасы, боевик, триллер, 20 ...
  • [EN] Женщина в черном / The Woman in Black (Джеймс Уоткинс, ужасы, триллер, ...
  • Женщина в черном / The Woman in Black (Джеймс Уоткинс / James Watkins, ужас ...
  • Женщина в черном / The Woman in Black (Джеймс Уоткинс / James Watkins, ужас ...
  • Женщина в черном / The Woman in Black (Джеймс Уоткинс / James Watkins, ужас ...
  • Женщина в черном / The Woman in Black (Джеймс Уоткинс / James Watkins, ужас ...
  • Женщина в черном / The Woman in Black (Джеймс Уоткинс, ужасы, триллер, драм ...
  • Информация
    Посетители, находящиеся в группе Гости, не могут оставлять комментарии к данной публикации.