вход на сайт

Имя пользователя :
Пароль :

Восстановление пароля Регистрация
Человек-волк [Театральная версия] / The Wolfman [Theatrical cut] (Джо Джонстон / Joe Johnston, ужасы, триллер, драма, 2010) [BDRip - AVC, Дублированный + Оригинал +SUB]
Рейтинг:
(голосов: 1)



[img]{THEME}/images/logopost.png[/img]



Человек-волк [Театральная версия] / The Wolfman [Theatrical cut]
«Бойся полной Луны»

Год выпуска: 2010
Страна: США
Производство: Relativity Media, Stuber Productions, Universal Pictures
Жанр: ужасы, триллер, драма

Режиссёр: Джо Джонстон / Joe Johnston
Роли озвучивали: Бенисио Дель Торо, Энтони Хопкинс, Эмили Блант, Хьюго Уивинг, Саймон Мерреллс, Джемма Уилан, Марио Марин-Борке,с Аса Баттерфилд, Кристина Контес, Арт Малик

Перевод: 1: Профессиональный (полное дублирование) (DUB)
2: Оригинал
Субтитры: Русские (forced, SRT), Английские (SRT, SDH)

Описание: Эта история разворачивается в Великобритании. Герой возвращается на Родину из Америки для того, чтобы найти без вести пропавшего брата. До него доходят слухи о том, что в предмеcтьях города обитает страшное существо, которое разрывает на части жителей окрестных деревень. Дело расследует полиция Скотланд-Ярда, вскоре их заинтересовывает джентльмен, приехавший на поиски брата.Дата премьеры (мир): 27 января 2010
Дата премьеры (РФ): 23 февраля 2010, «UPI»
Релиз на DVD: 22 июня 2010, «Юниверсал Пикчерс Рус»
Релиз на Blu-Ray: 22 июня 2010, «Юниверсал Пикчерс Рус»
Качество: BDRip - AVC
Продолжительность: 01:42:18

Формат: MKV
Видео кодек: x264
Аудио кодек: AC3
Видео: 1100x596 (16:9), 23.976 fps, AVC, ~2 120 kbps avg, 0.135 bit/pixel
Аудио #1: [Russian] 48 kHz, AC3, 6 channels (Front: L C R, Side: L R, LFE), ~448.00 kbps avg | DUB
Аудио #2: [English] 48 kHz, AC3, 6 channels (Front: L C R, Side: L R, LFE), ~448.00 kbps avg | Оригинал
MediaInfo ▼TextFormat : Matroska
File size : 2.20 GiB
Duration : 1h 42mn
Overall bit rate : 3 077 Kbps
Movie name : The Wolfman (2010) BDRip
Encoded date : UTC 2011-03-11 19:44:28
Writing application : mkvmerge v4.4.0 (Die Wiederkehr) built on Oct 31 2010 21:52:48
Writing library : libebml v1.0.0 + libmatroska v1.0.0
Cover : Yes

Video
ID : 1
Format : AVC
Format/Info : Advanced Video Codec
Format profile : [email protected]
Format settings, CABAC : Yes
Format settings, ReFrames : 11 frames
Codec ID : V_MPEG4/ISO/AVC
Duration : 1h 42mn
Bit rate : 2 120 Kbps
Width : 1 100 pixels
Height : 596 pixels
Display aspect ratio : 16:9
Frame rate : 23.976 fps
Color space : YUV
Chroma subsampling : 4:2:0
Bit depth : 8 bits
Scan type : Progressive
Bits/(Pixel*Frame) : 0.135
Stream size : 1.51 GiB (69%)
Writing library : x264 core 114 r1913 5fd3dce
Encoding settings : cabac=1 / ref=11 / deblock=1:-3:-3 / analyse=0x3:0x133 / me=umh / subme=10 / psy=1 / psy_rd=1.05:0.05 / mixed_ref=1 / me_range=32 / chroma_me=1 / trellis=2 / 8x8dct=1 / cqm=0 / deadzone=21,11 / fast_pskip=1 / chroma_qp_offset=-3 / threads=6 / sliced_threads=0 / nr=0 / decimate=1 / interlaced=0 / constrained_intra=0 / bframes=10 / b_pyramid=2 / b_adapt=2 / b_bias=0 / direct=1 / weightb=1 / open_gop=0 / weightp=2 / keyint=250 / keyint_min=23 / scenecut=40 / intra_refresh=0 / rc=crf / mbtree=0 / crf=19.7 / qcomp=0.70 / qpmin=0 / qpmax=69 / qpstep=4 / ip_ratio=1.40 / pb_ratio=1.20 / aq=1:0.70
Language : English
Matrix coefficients : BT.709-5, BT.1361, IEC 61966-2-4 709, SMPTE RP177

Audio #1
ID : 2
Format : AC-3
Format/Info : Audio Coding 3
Mode extension : CM (complete main)
Codec ID : A_AC3
Duration : 1h 42mn
Bit rate mode : Constant
Bit rate : 448 Kbps
Channel(s) : 6 channels
Channel positions : Front: L C R, Side: L R, LFE
Sampling rate : 48.0 KHz
Bit depth : 16 bits
Stream size : 328 MiB (15%)
Title : Dub
Language : Russian

Audio #2
ID : 3
Format : AC-3
Format/Info : Audio Coding 3
Mode extension : CM (complete main)
Codec ID : A_AC3
Duration : 1h 42mn
Bit rate mode : Constant
Bit rate : 448 Kbps
Channel(s) : 6 channels
Channel positions : Front: L C R, Side: L R, LFE
Sampling rate : 48.0 KHz
Bit depth : 16 bits
Stream size : 328 MiB (15%)
Title : Orig
f388fea8d4f95d489e59cac214b94814623037c6Человек-волк [Театральная версия] / The Wolfman [Theatrical cut] (Джо Джонстон / Joe Johnston, ужасы, триллер, драма, 2010) [BDRip - AVC, Дублированный + Оригинал +SUB] Человек-волк [Театральная версия] / The Wolfman [Theatrical cut] (Джо Джонстон / Joe Johnston, ужасы, триллер, драма, 2010) [BDRip - AVC, Дублированный + Оригинал +SUB] " />

Аплоадер: Админ, дата: 20-06-2012, 21:18, торрент скачан: 359 раз

Понравилась раздача? Посмотрите эти:
  • Пастырь / Priest (Скотт Чарльз Стюарт, ужасы, фантастика, боевик, триллер, ...
  • Снова ты / You Again (Энди Фикмен, Мелодрама, комедия, 2010) [BDRip-AVC, Пр ...
  • Железный Кулак [Театральная версия] / The Man with the Iron Fists [Theatric ...
  • Человек-волк / The Wolfman (Джо Джонстон,ужасы,триллер , 2010) [BDRip, Проф ...
  • Город воров / The Town [Театральная версия / Theatrical Cut] (Бен Аффлек / ...
  • Паранормальное явление 2 / Paranormal Activity 2 [Theatrical Сut / Театраль ...
  • Фантомы / Shutter (Масаюки Очиай, ужасы, триллер, детектив, 2008) [BDRip-AV ...
  • Человек-волк / The Wolfman [Unrated] (Джо Джонстон, ужасы, 2010) [HDRip-AVC ...
  • Репортаж из преисподней / [REC] 2 (Жауме Балагуэро, Пако Пласа, ужасы, трил ...
  • Робин Гуд [Режиссёрская версия] / Robin Hood [Directors Cut] (Ридли Скотт / ...
  • Апокалипсис сегодня / Apocalypse Now (Френсис Форд Коппола / Francis Ford C ...
  • Сутенер / Le mac (Паскаль Бюрдо / Pascal Bourdiaux, комедия, криминал, 2010 ...
  • Человек-волк / The Wolfman (Джо Джонстон, Ужасы, триллер, драма, 2010) [HDR ...
  • Город воров [Театральная версия] / The Town [Theatrical cut] (Бен Аффлек, т ...
  • [3D] Первый мститель 3Д / Captain America: The First Avenger 3D (Джо Джонст ...
  • [3D] Глаз ребенка / Childs Eye (Оксид Пан, ужасы, 2010) [BDRip, Дублированн ...
  • Паранормальное явление 3 / Paranormal Activity 3 [Theatrical Cut] (Генри Дж ...
  • Белоснежка и охотник [Театральная версия] / Snow White and the Huntsman [Th ...
  • Белоснежка и охотник [Театральная версия] / Snow White and the Huntsman [Th ...
  • Белоснежка и охотник [Театральная версия] / Snow White and the Huntsman [Th ...
  • Человек-волк / The Wolfman (Джо Джонстон, ужасы, триллер, драма, 2010) [Blu ...
  • Человек-волк / The Wolfman[Режиссерская версия / Unrated Directors Cut] (Дж ...
  • Человек-волк / The Wolfman (Джо Джонстон / Joe Johnston,Ужасы, триллер,2010 ...
  • Человек-волк / The Wolfman[Режиссерская версия / Unrated Directors Cut] (Дж ...
  • Человек-волк / The Wolfman[Режиссерская версия / Unrated Directors Cut] (Дж ...
  • Информация
    Посетители, находящиеся в группе Гости, не могут оставлять комментарии к данной публикации.