вход на сайт

Имя пользователя :
Пароль :

Восстановление пароля Регистрация
Ночь страха / Fright Night (Том Холланд, ужасы, триллер, комедия, 1985) [BDRip-AVC, Профессиональный (многоголосый, закадровый) + 4xАвторский (одноголосый, закадровый) + Оригинал + Sub]
Рейтинг:
(голосов: 1)



[img]{THEME}/images/logopost.png[/img]



Ночь Страха / Fright Night
«There are some very good reasons to be afraid...of the dark.»

Год выпуска: 1985
Страна: США
Производство: Columbia Pictures Corporation, Delphi IV Productions, Vistar Films
Жанр: ужасы, триллер, комедия

Режиссёр: Том Холланд / Tom Holland
В ролях: Крис Сарандон / Chris Sarandon, Уильям Рэгсдэйл / William Ragsdale, Аманда Бирз / Amanda Bearse, Родди МакДауэлл / Roddy McDowall, Стивен Джеффрис / Stephen Geoffreys, Джонатан Старк / Jonathan Stark, Дороти Филдинг / Dorothy Fielding, Арт Эванс / Art Evans, Стюарт Штерн / Stewart Stern ...

Перевод: Профессиональный (многоголосый закадровый) | СТС + Оригинал | English
+ Авторский (одноголосный закадровый) | С.Кузнецов
+ Авторский (одноголосный закадровый) | Radamant - отдельно
+ Авторский (одноголосный закадровый) | Russianguy27 - отдельно
+ Авторский (одноголосный закадровый) | Володарский - отдельно
Субтитры: английские

Описание: Юный поклонник ужастиков, Чарли, обнаруживает, что его сосед — вампир. Хуже того: соседу не нравится, что кто-то знает его тайну, поэтому жизнь Чарли под вопросом. Полностью отчаявшись, Чарли обращается за помощью к Питеру Винсенту, ведущему программы «Ночь страха», который якобы знает о вампирах все…Дата премьеры (мир): 2 августа 1985
Качество: BDRip-AVC | исх: BDRemux
Продолжительность: 01:46:25 час.

Формат: MKV
Видео кодек: AVC
Аудио кодек: AC-3, AAC-LC
Видео: 1152x480 (2.40:1), 23,976 кадр/сек, AVC ~2 363 kbps, 0.178 bit/pixel
Аудио: 48 kHz, AC-3, 2 ch, ~192.00 kbps avg | MVO | СТС
Аудио: 48 kHz, AC-3, 2 ch, ~192.00 kbps avg | AVO | С.Кузнецов
Аудио: 48 kHz, AC-3, 2 ch, ~192.00 kbps avg | AVO | Radamant - отдельно
Аудио: 48 kHz, AC-3, 2 ch, ~192.00 kbps avg | AVO | Russianguy27 - отдельно
Аудио: 48 kHz, AC-3, 2 ch, ~192.00 kbps avg | AVO | Володарский - отдельно
Аудио: 48 kHz, AC-3, 2 ch, ~192.00 kbps avg | ENG
MediaInfo ▼Format : Matroska
Format version : Version 2
File size : 2.23 GiB
Duration : 1h 46mn
Overall bit rate : 2 999 Kbps
Encoded date : UTC 2011-12-25 14:39:39
Writing application : mkvmerge v5.0.0 (Die Wahre Liebe) built on Sep 25 2011 20:33:49
Writing library : libebml v1.2.2 libmatroska v1.3.0
Video
ID : 1
Format : AVC
Format/Info : Advanced Video Codec
Format profile : [email protected]
Format settings, CABAC : Yes
Format settings, ReFrames : 12 frames
Codec ID : V_MPEG4/ISO/AVC
Duration : 1h 46mn
Bit rate : 2 363 Kbps
Width : 1 152 pixels
Height : 480 pixels
Display aspect ratio : 2.40:1
Frame rate : 23.976 fps
Color space : YUV
Chroma subsampling : 4:2:0
Bit depth : 8 bits
Scan type : Progressive
Bits/(Pixel*Frame) : 0.178
Stream size : 1.76 GiB (79%)
Writing library : x264 core 120 r2119kMod 0637cd6
Encoding settings : cabac=1 / ref=12 / deblock=1:-3:-2 / analyse=0x3:0x133 / me=umh / subme=10 / psy=1 / fade_compensate=0.00 / psy_rd=1.20:0.10 / mixed_ref=1 / me_range=32 / chroma_me=1 / trellis=2 / 8x8dct=1 / cqm=0 / deadzone=21,11 / fast_pskip=1 / chroma_qp_offset=-3 / threads=3 / sliced_threads=0 / nr=0 / decimate=1 / interlaced=0 / bluray_compat=0 / constrained_intra=0 / bframes=11 / b_pyramid=2 / b_adapt=2 / b_bias=0 / direct=1 / weightb=1 / open_gop=0 / weightp=2 / keyint=250 / keyint_min=23 / scenecut=40 / intra_refresh=0 / rc=crf / mbtree=0 / crf=21.0000 / qcomp=0.60 / qpmin=0 / qpmax=69 / qpstep=4 / ip_ratio=1.40 / pb_ratio=1.25 / aq=1:1.00 / zones=148176,153106,q=40
Language : English
Matrix coefficients : BT.709-5, BT.1361, IEC 61966-2-4 709, SMPTE RP177
Audio #1
ID : 2
Format : AC-3
Format/Info : Audio Coding 3
Mode extension : CM (complete main)
Codec ID : A_AC3
Duration : 1h 46mn
Bit rate mode : Constant
Bit rate : 192 Kbps
Channel(s) : 2 channels
Channel positions : Front: L R
Sampling rate : 48.0 KHz
Bit depth : 16 bits
Compression mode : Lossy
Stream size : 146 MiB (6%)
Title : MVO - CTC
Language : Russian
Audio #2
ID : 3
Format : AC-3
Format/Info : Audio Coding 3
Mode extens
7431ae27da6de5c62237103ce1e4404ca2479a1cНочь страха / Fright Night (Том Холланд, ужасы, триллер, комедия, 1985) [BDRip-AVC, Профессиональный (многоголосый, закадровый) + 4xАвторский (одноголосый, закадровый) + Оригинал + Sub] Ночь страха / Fright Night (Том Холланд, ужасы, триллер, комедия, 1985) [BDRip-AVC, Профессиональный (многоголосый, закадровый) + 4xАвторский (одноголосый, закадровый) + Оригинал + Sub] " />

Аплоадер: Админ, дата: 3-06-2012, 17:41, торрент скачан: 359 раз

Понравилась раздача? Посмотрите эти:
  • Ночь страха 2: Свежая кровь ( Эдуардо Родригез, Ужасы, Комедия, 2013) [BDRi ...
  • Сыщик / Sleuth (Кеннет Брэна, Триллер, драма, детектив, 2007) [BDRip-AVC, П ...
  • Ночь страха 2: Свежая кровь / Fright Night Part 2 (Эдуардо Родригез, ужасы, ...
  • Последний вампир / Blood: The Last Vampire (Крис Наон, Ужасы, фэнтези, боев ...
  • Птицы / The Birds (Альфред Хичкок, Ужасы, триллер, 1963) [BDRip-AVC, Профес ...
  • Шелуха / Husk (Бретт Симмонс, ужасы, триллер, 2011) [BDRip 720p, Профессион ...
  • Цельнометаллическая оболочка / Full Metal Jacket (Стэнли Кубрик, драма, вое ...
  • Ночь страха / Fright Night (Крэйг Гиллеспи ,ужасы, триллер, комедия,2011) [ ...
  • Мартовские иды / The Ides of March (Джордж Клуни / George Clooney, драма, 2 ...
  • Обряд / The Rite (Микаэль Хафстрем, ужасы, триллер, драма, 2011) [BDRip-AVC ...
  • Вальгалла: Сага о викинге / Valhalla Rising (Николас Виндинг Рёфн, боевик, ...
  • Поворот не туда 4 / Wrong Turn 4 (Деклан О’Брайэн, ужасы, боевик, детектив, ...
  • Остановка / Rest Stop: Dead Ahead (Джон Шибан, ужасы, триллер, 2006) [BDRip ...
  • Пир / Feast (Джон Гулажер, ужасы, боевик, триллер, комедия, 2005) [BDRip-AV ...
  • Видение / Dreamscape (Джозеф Рубен, ужасы, фантастика, триллер, приключения ...
  • Пятница 13-е / Friday the 13th (Шон С. Каннингэм, ужасы, триллер, детектив, ...
  • Пятница 13-е Часть 2 / Friday the 13th Part 2 (Стив Майнер, ужасы, триллер, ...
  • Охота за "Красным Октябрём" / The Hunt for "Red October" (Джон МакТирнан, б ...
  • Пятница 13-е Часть III / Friday the 13th Part III (Стив Майнер, ужасы, трил ...
  • Итальянская работа / The Italian Job (Питер Коллинсон, боевик, триллер, ком ...
  • Любимые / The Loved Ones (Шон Бирн, ужасы, триллер, драма, 2009) [BDRip-AVC ...
  • Чернокнижник / Warlock (Стив Майнер, ужасы, фэнтези, боевик, триллер, 1989) ...
  • Китайский квартал / Chinatown (Роман Полански, Триллер, драма, криминал, де ...
  • Пираньи 3DD / Piranha 3DD (Джон Гулажер, ужасы, триллер, комедия, 2012) [BD ...
  • Ночь страха 2 / Fright Night Part 2 (Томми Ли Уоллес, ужасы, комедия, 1988) ...
  • Информация
    Посетители, находящиеся в группе Гости, не могут оставлять комментарии к данной публикации.