вход на сайт

Имя пользователя :
Пароль :

Восстановление пароля Регистрация
Пир / Feast (Джон Гулажер, ужасы, боевик, триллер, комедия, 2005) [BDRip-AVC, Профессиональный (многоголосый закадровый) + Профессиональный (двухголосый закадровый) + 3xАвторский (одноголосый закадровый) + Оригинал + Sub]
Рейтинг:
(голосов: 1)



[img]{THEME}/images/logopost.png[/img]



Пир / Feast
«Они голодны. Вы их обед.»

Год выпуска: 2005
Страна: США
Производство: Maloof Motion Pictures
Жанр: ужасы, боевик, триллер, комедия

Режиссёр: Джон Гулажер / John Gulager
В ролях: Бальтазар Гетти, Генри Роллинз, Нави Рават, Джуда Фридлендер, Джош Цуккерман, Джейсон Мьюз, Дженни Вэйд, Криста Аллен, Клу Гулагер, Энтони ’Трич’ Крисс, Эрик Дэйн, Чойней Дейвис, Дайан Голднер, Somah Haaland, Тайлер Патрик Джонс, Майк Дж. Риган, Айлин Райан, Ханна Шик, Гэри Дж. Танниклифф, Дуан Уайтакер


Перевод: Профессиональный (многоголосый закадровый) | West video + Оригинал | English - Отдельно
+ Профессиональный (двухголосый закадровый)
+ Авторский (одноголосый закадровый) | Zamez
+ Авторский (одноголосый закадровый) | Russianguy27 - Отдельно
+ Авторский (одноголосый закадровый) | Карповский - Отдельно
Субтитры: русские, английские

Описание: Захудалый бар в пустыне, в котором в этот момент оказались: актер, модель, тренер, официантка и несколько странных личностей подвергается нападению кровожадных существ! Веская причина, чтобы покинуть это место. Но сначала нужно остаться в живых!..Дата премьеры (мир): 14 октября 2005
Качество: BDRip-AVC | BDRemux 1080p
Продолжительность: 01:26:47 час.

Формат: MKV
Видео кодек: AVC
Аудио кодек: AC3
Видео: 1 136x482 (2.35:1), 23,976 fps, AVC (H.264) ~2 641 kbps avg, 0.201 bit/pixel
Аудио: 48 kHz, AC3, 3/2 (L,C,R,l,r) + LFE ch, ~384.00 kbps avg | MVO - West video
Аудио: 48 kHz, AC3, 2 ch, ~192.00 kbps avg | DVO
Аудио: 48 kHz, AC3, 2 ch, ~192.00 kbps avg | AVO - Zamez
Аудио: 48 kHz, AC3, 2 ch, ~448.00 kbps avg | AVO - Russianguy27 - Отдельно
Аудио: 48 kHz, AC3, 2 ch, ~192.00 kbps avg | AVO - Карповский - Отдельно
Аудио: 48 kHz, AC3, 3/2 (L,C,R,l,r) + LFE ch, ~448.00 kbps avg | ENG - Отдельно
MediaInfo ▼General
Unique ID : 224268572960215656119014161060619039317 (0xA8B88E57A5F890C6AADD9BCD5C533255)
Complete name : F:FILMS___ - R - ___FEASTFeast.mkv
Format : Matroska
Format version : Version 2
File size : 2.06 GiB
Duration : 1h 26mn
Overall bit rate : 3 403 Kbps
Encoded date : UTC 2012-04-22 17:16:55
Writing application : mkvmerge v3.3.0 (Language) строится на Apr 12 2010 10:07:49
Writing library : libebml v0.8.0 + libmatroska v0.9.0
Video
ID : 1
Format : AVC
Format/Info : Advanced Video Codec
Format profile : [email protected]
Format settings, CABAC : Yes
Format settings, ReFrames : 14 frames
Codec ID : V_MPEG4/ISO/AVC
Duration : 1h 26mn
Bit rate : 2 641 Kbps
Width : 1 136 pixels
Height : 482 pixels
Display aspect ratio : 2.35:1
Frame rate : 23.976 fps
Color space : YUV
Chroma subsampling : 4:2:0
Bit depth : 8 bits
Scan type : Progressive
Bits/(Pixel*Frame) : 0.201
Stream size : 1.56 GiB (75%)
Title : AVC [email protected] fps ~ 2641 kBit/s 2-pass High 4.1
Writing library : x264 core 115 r2008bm 4c552d8
Encoding settings : cabac=1 / ref=14 / deblock=1:-1:-1 / analyse=0x3:0x133 / me=umh / subme=10 / psy=1 / psy_rd=1.10:0.05 / mixed_ref=1 / me_range=48 / chroma_me=1 / trellis=2 / 8x8dct=1 / cqm=0 / deadzone=21,11 / fast_pskip=0 / chroma_qp_offset=-3 / threads=6 / sliced_threads=0 / nr=0 / decimate=0 / interlaced=0 / bluray_compat=0 / constrained_intra=0 / bframes=12 / b_pyramid=2 / b_adapt=2 / b_bias=0 / direct=3 / weightb=1 / open_gop=0 / weightp=2 / keyint=250 / keyint_min=23 / scenecut=40 / intra_refresh=0 / rc=2pass / mbtree=0 / bitrate=2641 / ratetol=1.0 / qcomp=0.90 / qpmin=0 / qpmax=69 / qpstep=4 / cplxblur=20.0 / qblur=0.5 / ip_ratio=1.40 / pb_ratio=1.50 / aq=2:1.10
Language : English
Audio #1
ID : 2
Format : AC-3
Format/Info : Audio Coding 3
Mode extension : CM (complete main)
Codec ID : A_AC3
Duration : 1h 26mn
Bit rate mode : Constant
Bit rate : 384 Kbps
Channel(s) : 6 channels
Channel positions : Front: L C R, Side: L R, LFE
Sampling rate : 48.0 KHz
Bit depth : 16 bits
Compression mode : Lossy
Stream size : 238 MiB (11%)
Title : MVO Vest Video AC3 384 kBit/s 48 kHz 5.1 DD
Lang
d081629e41f575adab7b013c0aaa56eb7647a564Пир / Feast (Джон Гулажер, ужасы, боевик, триллер, комедия, 2005) [BDRip-AVC, Профессиональный (многоголосый закадровый) + Профессиональный (двухголосый закадровый) + 3xАвторский (одноголосый закадровый) + Оригинал + Sub] Пир / Feast (Джон Гулажер, ужасы, боевик, триллер, комедия, 2005) [BDRip-AVC, Профессиональный (многоголосый закадровый) + Профессиональный (двухголосый закадровый) + 3xАвторский (одноголосый закадровый) + Оригинал + Sub] " />

Аплоадер: Админ, дата: 31-05-2012, 18:33, торрент скачан: 359 раз

Понравилась раздача? Посмотрите эти:
  • Поворот не туда 4 / Wrong Turn 4 (Деклан О’Брайэн, ужасы, боевик, детектив, ...
  • Репортаж из преисподней / [REC] 2 (Жауме Балагуэро, Пако Пласа, ужасы, трил ...
  • Остановка 2: Не оглядывайся назад / Rest Stop: Dont Look Back (Шоун Папазян ...
  • Остановка / Rest Stop: Dead Ahead (Джон Шибан, ужасы, триллер, 2006) [BDRip ...
  • Видение / Dreamscape (Джозеф Рубен, ужасы, фантастика, триллер, приключения ...
  • Ночь страха / Fright Night (Том Холланд, ужасы, триллер, комедия, 1985) [BD ...
  • Спаун / Отродие / Spawn (Марк Э. З. Диппе, фэнтези, боевик, триллер, 1997) ...
  • Пришелец / Impostor (Гэри Фледер, фантастика, боевик, триллер, драма, 2001) ...
  • Повторяющие / Repeaters (Карл Бессай, фантастика, боевик, триллер, драма, к ...
  • Пятница 13-е / Friday the 13th (Шон С. Каннингэм, ужасы, триллер, детектив, ...
  • Пятница 13-е Часть 2 / Friday the 13th Part 2 (Стив Майнер, ужасы, триллер, ...
  • Охота за "Красным Октябрём" / The Hunt for "Red October" (Джон МакТирнан, б ...
  • Пятница 13-е Часть III / Friday the 13th Part III (Стив Майнер, ужасы, трил ...
  • Ромео должен умереть / Romeo Must Die (Анджей Бартковяк, Боевик, триллер, к ...
  • Любимые / The Loved Ones (Шон Бирн, ужасы, триллер, драма, 2009) [BDRip-AVC ...
  • Чернокнижник / Warlock (Стив Майнер, ужасы, фэнтези, боевик, триллер, 1989) ...
  • Китайский квартал / Chinatown (Роман Полански, Триллер, драма, криминал, де ...
  • Пираньи 3DD / Piranha 3DD (Джон Гулажер, ужасы, триллер, комедия, 2012) [BD ...
  • Викинги / Outlander (Ховард МакКейн, Фантастика, боевик, приключения, 2008) ...
  • Пир / Feast (Джон Гулажер, Ужасы, Триллер, Боевик, 2005) [DVDRip, Профессио ...
  • Информация
    Посетители, находящиеся в группе Гости, не могут оставлять комментарии к данной публикации.