вход на сайт

Имя пользователя :
Пароль :

Восстановление пароля Регистрация
Репортаж из преисподней / [REC] 2 (Жауме Балагуэро, Пако Пласа, ужасы, триллер, 2007) [BDRip-AVC, Дублированный, Любительский (двухголосый), Любительский (одноголосый) 2х, Испанский, субтитры]
Рейтинг:
(голосов: 1)



[img]{THEME}/images/logopost.png[/img]



Репортаж из преисподней / [Rec] ²

Год выпуска: 2009
Страна: Испания
Производство: Filmax
Жанр: ужасы, триллер

Режиссёр: Хайме Балагуэро
В ролях: Джонатан Меллор, Мануэла Веласко, Оскар Зафра, Эриель Касас, Пабло Россо, Пеп Молина, Андреа Рос

Перевод: Дублированный + Оригинал [Spanish]
+ Любительский (двухголосый закадровый) - Отдельно
+ Любительский (одноголосый закадровый) Zamez ненормативная лексика - Отдельно
+ Любительский (одноголосый закадровый) Zamez - Отдельно
Субтитры: русские 2 варианта, английские

Описание: Отряд спецназовцев вместе с медицинским работником проникают в дом, ставший эпицентром распространившейся заразы, превращающей людей в безумных пожирателей плоти…Дата премьеры (мир): 2 сентября 2009
Дата премьеры (РФ): 20 мая 2010, «Каскад»
Качество: BDRip-AVC
Продолжительность: 01:24:13

Формат: MKV
Видео кодек: AVC
Аудио кодек: AC3
Видео: 1 104x596 (1.85:1), 23.976 fps, AVC ~2 842 Kbps, 0.180 bit/pixel
Аудио: 48.0 KHz, AC3, 6 channels (Front: L C R, Side: L R, LFE), 384.00 kbps avg | DUB
Аудио: 48.0 KHz, AC3, 6 channels (Front: L C R, Side: L R, LFE), 448.00 kbps avg | SPA
Аудио: 48.0 KHz, AC3, 6 channels (Front: L C R, Side: L R, LFE), 448.00 kbps avg | DVO
Аудио: 48.0 KHz, AC3, 6 channels (Front: L C R, Side: L R, LFE), 448.00 kbps avg | VO - Zamez ненормативная лексика - Отдельно
Аудио: 48.0 KHz, AC3, 2 channels, 192.00 kbps avg | VO - Zamez - Отдельно
MediaInfo ▼General
Unique ID : 232969624061606465256787168770669731379 (0xAF4451486B78360D949D4140B4ACDE33)
Complete name : F:FILMS___ - R - ___REC2[REC]2.mkv
Format : Matroska
Format version : Version 2
File size : 2.16 GiB
Duration : 1h 24mn
Overall bit rate : 3 659 Kbps
Encoded date : UTC 2012-05-24 17:12:10
Writing application : mkvmerge v3.3.0 (Language) строится на Apr 12 2010 10:07:49
Writing library : libebml v0.8.0 + libmatroska v0.9.0
Video
ID : 1
Format : AVC
Format/Info : Advanced Video Codec
Format profile : [email protected]
Format settings, CABAC : Yes
Format settings, ReFrames : 12 frames
Codec ID : V_MPEG4/ISO/AVC
Duration : 1h 24mn
Bit rate : 2 842 Kbps
Width : 1 104 pixels
Height : 596 pixels
Display aspect ratio : 1.85:1
Frame rate : 23.976 fps
Color space : YUV
Chroma subsampling : 4:2:0
Bit depth : 8 bits
Scan type : Progressive
Bits/(Pixel*Frame) : 0.180
Stream size : 1.62 GiB (75%)
Title : AVC (x264) [email protected] fps ~2842 kBit/s 2-pass High 4.1
Writing library : x264 core 122 r2184bm 5c85e0a
Encoding settings : cabac=1 / ref=12 / deblock=1:-1:-1 / analyse=0x3:0x133 / me=umh / subme=10 / psy=1 / psy_rd=1.10:0.15 / mixed_ref=1 / me_range=48 / chroma_me=1 / trellis=2 / 8x8dct=1 / cqm=0 / deadzone=21,11 / fast_pskip=0 / chroma_qp_offset=-3 / threads=6 / sliced_threads=0 / nr=0 / decimate=0 / interlaced=0 / bluray_compat=0 / constrained_intra=0 / bframes=12 / b_pyramid=2 / b_adapt=2 / b_bias=0 / direct=3 / weightb=1 / open_gop=0 / weightp=2 / keyint=250 / keyint_min=23 / scenecut=40 / intra_refresh=0 / rc=2pass / mbtree=0 / bitrate=2842 / ratetol=1.0 / qcomp=0.90 / qpmin=0 / qpmax=69 / qpstep=4 / cplxblur=20.0 / qblur=0.5 / ip_ratio=1.40 / pb_ratio=1.60 / aq=2:1.10
Language : Spanish
Default : Yes
Forced : No
Audio #1
ID : 2
Format : AC-3
Format/Info : Audio Coding 3
Mode extension : CM (complete main)
Format settings, Endianness : Big
Codec ID : A_AC3
Duration : 1h 24mn
Bit rate mode : Constant
Bit rate : 384 Kbps
Channel(s) : 6 channels
Channel positions : Front: L C R, Side: L R, LFE
Sampling rate : 48.0 KHz
Bit depth : 16 bits
Compression mode : Lossy
Stream size : 232 MiB (10%)
Title : Дубляж AC3 384 kBit/s 48 kHz 5.1 DD
Language : Russian
Default : Yes
Forced : No
Audio #2
ID : 3
Format : AC-3
Format/Info : Audio Coding 3
Mode extension : CM (complete main)
Format settings, Endianness : Big
Codec ID : A_AC3
Duration : 1h 24mn
Bit rate mode : Constant
Bit rate : 448 Kbps
Channel(s) : 6 channels
Channel p
9d7c94f8b9ca19bf97619e36a0417176c0f2cd82Репортаж из преисподней / [REC] 2 (Жауме Балагуэро, Пако Пласа, ужасы, триллер, 2007) [BDRip-AVC, Дублированный, Любительский (двухголосый), Любительский (одноголосый) 2х, Испанский, субтитры] Репортаж из преисподней / [REC] 2 (Жауме Балагуэро, Пако Пласа, ужасы, триллер, 2007) [BDRip-AVC, Дублированный, Любительский (двухголосый), Любительский (одноголосый) 2х, Испанский, субтитры] " />

Аплоадер: Админ, дата: 29-05-2012, 15:32, торрент скачан: 359 раз

Понравилась раздача? Посмотрите эти:
  • Пастырь / Priest (Скотт Чарльз Стюарт, ужасы, фантастика, боевик, триллер, ...
  • Ледяной / The Iceman (Ариэль Вромен, драма, криминал, биография, 2013) [BDR ...
  • Кровью и потом: Анаболики / Pain & Gain (Майкл Бэй, криминал, комедия, трил ...
  • Честь дракона / Tom yum goong (Прачья Пинкаю, боевик, триллер, драма, крим ...
  • Фантомы / Shutter (Масаюки Очиай, ужасы, триллер, детектив, 2008) [BDRip-AV ...
  • Поворот не туда 4 / Wrong Turn 4 (Деклан О’Брайэн, ужасы, боевик, детектив, ...
  • Пир / Feast (Джон Гулажер, ужасы, боевик, триллер, комедия, 2005) [BDRip-AV ...
  • Видение / Dreamscape (Джозеф Рубен, ужасы, фантастика, триллер, приключения ...
  • Спаун / Отродие / Spawn (Марк Э. З. Диппе, фэнтези, боевик, триллер, 1997) ...
  • Пришелец / Impostor (Гэри Фледер, фантастика, боевик, триллер, драма, 2001) ...
  • Повторяющие / Repeaters (Карл Бессай, фантастика, боевик, триллер, драма, к ...
  • Морской бой / Battleship (Питер Берг, фантастика, боевик, триллер, приключе ...
  • Неизвестный / Unknown (Жауме Серра / Jaume Collet-Serra, триллер, драма, де ...
  • Закон доблести / Act of Valor (Майк МакКой, Скотт Во, боевик, триллер, прик ...
  • Идеальный Голос / Pitch Perfect (Джейсон Мур, Комедия, музыка, 2012) [BDRip ...
  • Экстрасенс / The Awakening (Ник Мерфи, ужасы, триллер, 2011) [BDRip 720p, Д ...
  • Ворон / The Raven (Джеймс МакТиг, Триллер, детектив, 2012) [BDRip 720p, Дуб ...
  • Хижина в лесу / The Cabin in the Woods (Дрю Годдард, ужасы, триллер, 2012) ...
  • Пираньи 3DD / Piranha 3DD (Джон Гулажер, ужасы, триллер, комедия, 2012) [BD ...
  • Слова / The Words [EXTENDED] (Ли Стернтал, Драма, мелодрама, 2012) [BDRip 7 ...
  • Репортаж 2 / Репортаж из преисподней / [Rec] 2 (Хайме Балагуэро, Пако Пласа ...
  • Репортаж из преисподней / [Rec] 2 (Хайме Балагуэро, Пако Пласа, ужасы, 2009 ...
  • Репортаж [Дилогия] / [Rec] [Dilogy] (Жауме Балагуэро, Пако Пласа, Хайме Бал ...
  • Репортаж из преисподней / [Rec] 2 (Хаум Балагуэро, Пако Плаза, ужасы, трилл ...
  • Сверхновый Супермен / All-Star Superman (Сэм Лью, мультфильм, фантастика, б ...
  • Информация
    Посетители, находящиеся в группе Гости, не могут оставлять комментарии к данной публикации.