вход на сайт

Имя пользователя :
Пароль :

Восстановление пароля Регистрация
Поворот не туда 4 / Wrong Turn 4 (Деклан О’Брайэн, ужасы, боевик, детектив, 2011) [BDRip-AVC, Профессиональный (многоголосый закадровый) + Оригинал + Sub]
Рейтинг:
(голосов: 1)



[img]{THEME}/images/logopost.png[/img]



Поворот не туда 4 / Wrong Turn 4
«These hillbillies are going crazy»

Год выпуска: 2011
Страна: США , Германия
Производство: 20th Century Fox Home Entertainment
Жанр: ужасы, боевик, детектив

Режиссёр: Деклан О’Брайэн
В ролях: Дин Армстронг, Блейн Кипурда, Теника Дэвис, Дэйв Хармс, Кристен Харрис, Скотт Джонсон, Саманта Кендрик, Арни Макферсон, Дженнифер Пудавик, Дэн Скин

Перевод: Профессиональный (многоголосый закадровый) + Оригинал
Субтитры: русский, английский |Отдельно|

Описание: Группа друзей отправляется на снегоходах на зимнюю прогулку. Во время метели они заблудились и свернули не туда. Встреча с мутантами-каннибалами стала для героев большой неожиданностью…





Дата премьеры (мир): 17 октября 2011

Качество: BDRip-AVC
Продолжительность: 01:33:20

Формат: MKV
Видео кодек: AVC
Аудио кодек: AC3
Видео: 1 024x576 (16:9), 23.976 fps, ~1 848 kbps avg, 0.131 bit/pixel
Аудио: |RUS| 48.0 KHz, 6 channels (Front: L C R, Side: L R, LFE), 384.00 kbps avg |MVO|
Аудио: |ENG| 48.0 KHz, 6 channels (Front: L C R, Side: L R, LFE), 448.00 kbps avg |Оригинал| Отдельно
MediaInfo ▼TextFormat : Matroska
Format version : Version 2
File size : 1.46 GiB
Duration : 1h 33mn
Overall bit rate : 2 233 Kbps
Encoded date : UTC 2012-05-27 16:31:07
Writing application : mkvmerge v5.5.0 (Healer) built on Apr 6 2012 21:43:24
Writing library : libebml v1.2.3 + libmatroska v1.3.0

Video
ID : 1
Format : AVC
Format/Info : Advanced Video Codec
Format profile : [email protected]
Format settings, CABAC : Yes
Format settings, ReFrames : 10 frames
Muxing mode : Header stripping
Codec ID : V_MPEG4/ISO/AVC
Duration : 1h 33mn
Bit rate : 1 848 Kbps
Width : 1 024 pixels
Height : 576 pixels
Display aspect ratio : 16:9
Frame rate : 23.976 fps
Color space : YUV
Chroma subsampling : 4:2:0
Bit depth : 8 bits
Scan type : Progressive
Bits/(Pixel*Frame) : 0.131
Stream size : 1.18 GiB (81%)
Title : BDRip.1080p.by.WoRG
Writing library : x264 core 120 r2146 bcd41db
Encoding settings : cabac=1 / ref=10 / deblock=1:-2:-1 / analyse=0x3:0x133 / me=umh / subme=11 / psy=1 / psy_rd=1.00:0.10 / mixed_ref=1 / me_range=32 / chroma_me=1 / trellis=2 / 8x8dct=1 / cqm=0 / deadzone=6,6 / fast_pskip=0 / chroma_qp_offset=-3 / threads=6 / sliced_threads=0 / nr=0 / decimate=0 / interlaced=0 / bluray_compat=0 / constrained_intra=0 / bframes=14 / b_pyramid=2 / b_adapt=2 / b_bias=0 / direct=3 / weightb=1 / open_gop=0 / weightp=2 / keyint=240 / keyint_min=23 / scenecut=40 / intra_refresh=0 / rc_lookahead=60 / rc=2pass / mbtree=1 / bitrate=1848 / ratetol=1.0 / qcomp=0.80 / qpmin=0 / qpmax=69 / qpstep=4 / cplxblur=20.0 / qblur=0.5 / ip_ratio=1.10 / aq=1:0.50
Language : English
Default : Yes
Forced : No

Audio
ID : 2
Format : AC-3
Format/Info : Audio Coding 3
Mode extension : CM (complete main)
Muxing mode : Header stripping
Codec ID : A_AC3
Duration : 1h 33mn
Bit rate mode : Constant
Bit rate : 384 Kbps
Channel(s) : 6 channels
Channel positions : Front: L C R, Side: L R, LFE
Sampling rate : 48.0 KHz
Bit depth : 16 bits
Compression mode : Lossy
Stream size : 256 MiB (17%)
Title : MVO
Language : Russian
Default : Yes
Forced : No

76870e6feaac99143e97f60cd63f7e5a02cdd48cПоворот не туда 4 / Wrong Turn 4 (Деклан О’Брайэн, ужасы, боевик, детектив, 2011) [BDRip-AVC, Профессиональный (многоголосый закадровый) + Оригинал + Sub] Поворот не туда 4 / Wrong Turn 4 (Деклан О’Брайэн, ужасы, боевик, детектив, 2011) [BDRip-AVC, Профессиональный (многоголосый закадровый) + Оригинал + Sub] " />

Аплоадер: Админ, дата: 28-05-2012, 00:52, торрент скачан: 359 раз

Понравилась раздача? Посмотрите эти:
  • Погнали! / Getaway (Кортни Соломон, боевик, криминал, 2013) [BDRip 720p, Пр ...
  • Пастырь / Priest (Скотт Чарльз Стюарт, ужасы, фантастика, боевик, триллер, ...
  • Верное дельце / Une pure affaire (Александр Коффре, Боевик, Комедия, Кримин ...
  • Посылка / The Package (Джесси Джонсон, боевик, 2013) [BDRip 720p, Профессио ...
  • Гость / The Caller (Мэттью Паркхилл, триллер, детектив, 2011) [BDRip 720p, ...
  • Джекпот / Arme Riddere (Магнус Мартенс, Боевик, комедия, криминал, 2011) [B ...
  • Убить по расписанию / Ticking Clock (Эрни Барбараш, фантастика, боевик, три ...
  • Шелуха / Husk (Бретт Симмонс, ужасы, триллер, 2011) [BDRip 720p, Профессион ...
  • Властелин измерений / Grande ourse - La cle des possibles (Патрис Сов, фант ...
  • Фантомы / Shutter (Масаюки Очиай, ужасы, триллер, детектив, 2008) [BDRip-AV ...
  • Поворот не туда 5 / Wrong Turn 5 (Деклан О’Брайэн, ужасы, триллер, 2012) [B ...
  • Поворот не туда 5 / Wrong Turn 5 (Деклан О’Брайэн, ужасы, триллер, 2012) [B ...
  • Коллекционер 2 / The Collection (Маркус Данстэн, ужасы, боевик, триллер , 2 ...
  • Другой мир: Пробуждение / Underworld: Awakening (Монс Морлинд, Бьёрн Стейн, ...
  • Ворон / The Raven (Джеймс МакТиг, Триллер, детектив, 2012) [BDRip 720p, Дуб ...
  • Семь футов / Seven Below (Кевин Каррауэй, Ужасы, триллер, 2012) [BDRip 720p ...
  • Поворот не туда 5 / Wrong Turn 5 (Деклан О’Брайэн, ужасы, триллер, 2012) [B ...
  • Mylene Farmer / Du Temps [2011, Pop, HDTVRip]
  • Поворот не туда 3 / Wrong Turn 3: Left for Dead (Деклан О`Брайэн, ужасы, т ...
  • Поворот не туда 3 / Wrong Turn 3: Left for Dead (Деклан О`Брайэн, ужасы, тр ...
  • Хостел 3 / Hostel: Part III (Скотт Спигел / Scott Spiegel, ужасы, триллер, ...
  • Футбольные гладиаторы / Ушедшее время / Awaydays (Пэт Холден, драма, кримин ...
  • Поворот не туда 4 / Wrong Turn 4 (Деклан О’Брайэн, ужасы, триллер, 2011) [H ...
  • [ENG] Поворот не туда 5: Кровные узы / Wrong Turn 5: Bloodlines (Деклан О’Б ...
  • Поворот не туда 5 / Wrong Turn 5 (Деклан О’Брайэн, ужасы, триллер, 2012) [H ...
  • Информация
    Посетители, находящиеся в группе Гости, не могут оставлять комментарии к данной публикации.