вход на сайт

Имя пользователя :
Пароль :

Восстановление пароля Регистрация
Затаившиеся / Hidden (Антуан Томас, ужасы, триллер, 2011) [HDRip-AVC, Дублированный + Оригинал + Sub]
Рейтинг:
(голосов: 1)



[img]{THEME}/images/logopost.png[/img]



Затаившиеся / Hidden
«Есть вещи, о которых лучше забыть…»

Год выпуска: 2011
Страна: Канада Италия
Производство: Caramel Film
Жанр: ужасы, триллер

Режиссёр: Антуан Томас
В ролях: Шон Клемент, Симонетта Солдер, Джордан Хэйес, Джейсон Бликер, Бьянка Мерджел, Девон Бостик, Эллиотт Ларсон-Гилмор, Аллан Колмэн, Кристина Розато

Перевод: Дублированный + Оригинал
Субтитры: Русские (внешние, srt)

Описание: Компания молодых людей отправляется на выходные в опустевший монастырь, где некогда располагался загадочный медицинский центр для людей с тяжелыми зависимостями. Вскоре выясняется, что над пациентами тайно проводились бесчеловечные эксперименты, в результате которых изгнанные из людей пороки никуда не исчезли, а затаились в стенах древнего здания и ждут своего часа. Они переполнены жаждой мести и уже никого не выпустят наружу…



Автор рипа: MAXIMENSHIK

Качество: HDRip-AVC | BDRip 720p
Продолжительность: 01:21:21 час.

Формат: MKV
Видео кодек: AVC
Аудио кодек: AC3
Видео: 1 024x576 (16:9), 23.976 fps, AVC ~2 937 kbps, 0.208 bit/pix
Аудио: 48 kHz, AC3, 6 ch, ~448.00 kbps avg | Russian (DUB)
Аудио: 48 kHz, AC3, 6 ch, ~448.00 kbps avg | English

Премьера (мир): 21 апреля 2011
Премьера (РФ): 21 апреля 2011, «Каравелла DDC»
Mediainfo ▼General
Unique ID : 186255744316293128460915728298882841189 (0x8C1F8D3105FF73E98BC20850FA5F3A65)
Complete name : E:ataivshiesya.2011.HDRip.mkv
Format : Matroska
File size : 2.18 GiB
Duration : 1h 21mn
Overall bit rate : 3 831 Kbps
Encoded date : UTC 2011-05-24 02:36:22
Writing application : mkvmerge v4.0.0 (The Stars were mine) сборка от Jun 6 2010 16:18:42
Writing library : libebml v1.0.0 + libmatroska v1.0.0
Video
ID : 1
Format : AVC
Format/Info : Advanced Video Codec
Format profile : [email protected]
Format settings, CABAC : Yes
Format settings, ReFrames : 11 frames
Codec ID : V_MPEG4/ISO/AVC
Duration : 1h 21mn
Bit rate : 2 937 Kbps
Width : 1 024 pixels
Height : 576 pixels
Display aspect ratio : 16:9
Frame rate : 23.976 fps
Color space : YUV
Chroma subsampling : 4:2:0
Bit depth : 8 bits
Scan type : Progressive
Bits/(Pixel*Frame) : 0.208
Stream size : 1.62 GiB (75%)
Writing library : x264 core 114 r1924 08d04a4
Encoding settings : cabac=1 / ref=11 / deblock=1:-2:-1 / analyse=0x3:0x133 / me=umh / subme=9 / psy=1 / psy_rd=1.00:0.05 / mixed_ref=1 / me_range=24 / chroma_me=1 / trellis=2 / 8x8dct=1 / cqm=0 / deadzone=21,11 / fast_pskip=1 / chroma_qp_offset=-3 / threads=12 / sliced_threads=0 / nr=0 / decimate=1 / interlaced=0 / constrained_intra=0 / bframes=8 / b_pyramid=2 / b_adapt=2 / b_bias=0 / direct=3 / weightb=1 / open_gop=0 / weightp=2 / keyint=250 / keyint_min=23 / scenecut=40 / intra_refresh=0 / rc=2pass / mbtree=0 / bitrate=2937 / ratetol=1.0 / qcomp=0.65 / qpmin=0 / qpmax=65 / qpstep=4 / cplxblur=20.0 / qblur=0.5 / ip_ratio=1.40 / pb_ratio=1.30 / aq=1:1.00
Language : English
Audio #1
ID : 2
Format : AC-3
Format/Info : Audio Coding 3
Mode extension : CM (complete main)
Codec ID : A_AC3
Duration : 1h 21mn
Bit rate mode : Constant
Bit rate : 448 Kbps
Channel(s) : 6 channels
Channel positions : Front: L C R, Side: L R, LFE
Sampling rate : 48.0 KHz
Bit depth : 16 bits
Compression mode : Lossy
Stream size : 261 MiB (12%)
Language : Russian
Audio #2
ID : 3
Format : AC-3
Format/Info : Audio Coding 3
Mode extension : CM (complete main)
Codec ID : A_AC3
Duration : 1h 21mn
Bit rate mode : Constant
Bit rate : 448 Kbps
Channel(s) : 6 channels
Channel positions : Front: L C R, Side: L R, LFE
Sampling rate : 48.0 KHz
Bit depth : 16 bits
Compression mode : Lossy
Stream size : 261 MiB (12%)


2473b84d8c5d1acd86c0307d97fc9156a9a0597dЗатаившиеся / Hidden (Антуан Томас, ужасы, триллер, 2011) [HDRip-AVC, Дублированный + Оригинал + Sub] Затаившиеся / Hidden (Антуан Томас, ужасы, триллер, 2011) [HDRip-AVC, Дублированный + Оригинал + Sub] " />

Аплоадер: Админ, дата: 22-05-2012, 12:40, торрент скачан: 359 раз

Понравилась раздача? Посмотрите эти:
  • Пастырь / Priest (Скотт Чарльз Стюарт, ужасы, фантастика, боевик, триллер, ...
  • Убить по расписанию / Ticking Clock (Эрни Барбараш, фантастика, боевик, три ...
  • Шелуха / Husk (Бретт Симмонс, ужасы, триллер, 2011) [BDRip 720p, Профессион ...
  • Затаившиеся / Hidden (Антуан Томас, Ужасы, 2011) [BDRip , Профессиональный ...
  • Затаившиеся / Hidden (Антуан Томас, Ужасы, 2011) [BDRip - AVC, Дубляж]
  • Затаившиеся / Hidden (Антуан Томас, ужасы, триллер, 2011) [HDRip-AVC, Дубля ...
  • Стрелок / Shooter (Антуан Фукуа, боевик, триллер, криминал, детектив, 2007) ...
  • Зелёный Шершень / The Green Hornet (Мишель Гондри, боевик, триллер, комедия ...
  • Фантомы / Shutter (Масаюки Очиай, ужасы, триллер, детектив, 2008) [BDRip-AV ...
  • Репортаж из преисподней / [REC] 2 (Жауме Балагуэро, Пако Пласа, ужасы, трил ...
  • Оборотень: Зверь среди нас / Werewolf: The Beast Among Us (Луи Морно, ужасы ...
  • [3D] Затаившиеся 3D / Hidden 3D (Антуан Томас, Ужасы, 2011) [BDRip - AVC, Д ...
  • Красная шапочка / Red Riding Hood (Кэтрин Хардвик, ужасы, фэнтези, триллер, ...
  • Исходный код / Source Code (Дункан Джонс, фантастика, боевик, триллер, 2011 ...
  • 11-11-11 / 11-11-11 (Даррен Линн Боусман, ужасы, триллер, 2011) [BDRip 720p ...
  • Экстрасенс / The Awakening (Ник Мерфи, ужасы, триллер, 2011) [BDRip 720p, Д ...
  • Mylene Farmer / Du Temps [2011, Pop, HDTVRip]
  • Mylene Farmer / Bleu Noir [2011, Pop, HDTVRip]
  • Затаившиеся / Hidden (Антуан Томас, ужасы, триллер, 2011) [HDRip, Профессио ...
  • Хостел 3 / Hostel: Part III (Скотт Спигел / Scott Spiegel, ужасы, триллер, ...
  • Информация
    Посетители, находящиеся в группе Гости, не могут оставлять комментарии к данной публикации.