вход на сайт

Имя пользователя :
Пароль :

Восстановление пароля Регистрация
Фантомы / Shutter (Масаюки Очиай, ужасы, триллер, детектив, 2008) [BDRip-AVC, Полное дублирование + Оригинал + Sub]
Рейтинг:
(голосов: 1)



[img]{THEME}/images/logopost.png[/img]



Фантомы / Shutter
«Самые страшные кадры - те, что настоящие»

Год выпуска: 2008
Страна: США
Производство: New Regency Pictures, Ozla Pictures, Regency Enterprises, Vertigo Entertainment
Жанр: ужасы, триллер, детектив

Режиссёр: Масаюки Очиай
В ролях: Джошуа Джексон, Рэйчел Тейлор, Мегуми Окина, Дэвид Денман, Джон Хенсли, Майя Хазен, Джеймс Кайсон Ли, Йошико Миядзаки, Кеи Ямамото, Дэйзи Беттс

Перевод: Полное дублирование + Оригинал
Субтитры: Русские, Русские (Forced), Английские

Описание: Проявляя фотографии после несчастного случая, пара молодоженов обнаруживает на них пугающие призрачные фигуры. Опасаясь, что все это может быть взаимосвязано, супруги пытаются выяснить природу этих явлений и понимают, что лучше бы они не лезли в эти тайны.





Дата премьеры (мир): 19 марта 2008
Дата премьеры (РФ): 3 апреля 2008, «Двадцатый Век Фокс СНГ»

Качество: BDRip-AVC (Исходник: Blu-Ray)
Продолжительность: 01:29:37

Формат: MKV
Видео кодек: H.264
Аудио кодек: AC-3
Видео: 1 004x544 (16:9), 23.976 fps, ~4 200 kbps avg, 0.321 bit/pixel
Аудио#1: 48.0 KHz, 6 channels (Front: L C R, Side: L R, LFE), 448.00 kbps avg|RUS|
Аудио#2: 48.0 KHz, 6 channels (Front: L C R, Side: L R, LFE), 448.00 kbps avg|ENG|
MediaInfo ▼TextFormat : Matroska
Format version : Version 2
File size : 3.19 GiB
Duration : 1h 29mn
Overall bit rate : 5 097 Kbps
Encoded date : UTC 2012-03-23 17:08:06
Writing application : mkvmerge v5.0.1 (Es ist Sommer) built on Oct 9 2011 11:55:43
Writing library : libebml v1.2.2 + libmatroska v1.3.0

Video
ID : 1
Format : AVC
Format/Info : Advanced Video Codec
Format profile : [email protected]
Format settings, CABAC : Yes
Format settings, ReFrames : 12 frames
Codec ID : V_MPEG4/ISO/AVC
Duration : 1h 29mn
Bit rate : 4 200 Kbps
Width : 1 004 pixels
Height : 544 pixels
Display aspect ratio : 16:9
Frame rate : 23.976 fps
Color space : YUV
Chroma subsampling : 4:2:0
Bit depth : 8 bits
Scan type : Progressive
Bits/(Pixel*Frame) : 0.321
Stream size : 2.57 GiB (80%)
Title : Shutter 2008 x264 BDRip-AVC Gambit
Writing library : x264 core 119 r2106 07efeb4
Encoding settings : cabac=1 / ref=12 / deblock=1:-3:-2 / analyse=0x3:0x133 / me=umh / subme=11 / psy=1 / psy_rd=0.95:0.00 / mixed_ref=1 / me_range=40 / chroma_me=1 / trellis=2 / 8x8dct=1 / cqm=0 / deadzone=21,11 / fast_pskip=0 / chroma_qp_offset=-4 / threads=6 / sliced_threads=0 / nr=0 / decimate=1 / interlaced=0 / bluray_compat=0 / constrained_intra=0 / bframes=13 / b_pyramid=2 / b_adapt=2 / b_bias=0 / direct=3 / weightb=1 / open_gop=0 / weightp=2 / keyint=250 / keyint_min=23 / scenecut=40 / intra_refresh=0 / rc=2pass / mbtree=0 / bitrate=4200 / ratetol=1.0 / qcomp=0.70 / qpmin=0 / qpmax=69 / qpstep=4 / cplxblur=20.0 / qblur=0.5 / ip_ratio=1.40 / pb_ratio=1.20 / aq=2:0.80
Language : English
Default : Yes
Forced : No

Audio #1
ID : 2
Format : AC-3
Format/Info : Audio Coding 3
Mode extension : CM (complete main)
Codec ID : A_AC3
Duration : 1h 29mn
Bit rate mode : Constant
Bit rate : 448 Kbps
Channel(s) : 6 channels
Channel positions : Front: L C R, Side: L R, LFE
Sampling rate : 48.0 KHz
Bit depth : 16 bits
Compression mode : Lossy
Stream size : 287 MiB (9%)
Title : DUB
Language : Russian
Default : Yes
Forced : No

Audio #2
ID : 3
Format : AC-3
Format/Info : Audio Coding 3
Mode extension : CM (complete main)
Codec ID : A_AC3
Duration : 1h 29mn
Bit rate mode : Constant
Bit rate : 448 Kbps
Channel(s) : 6 channels
Channel positions : Front: L C R, Side: L R, LFE
Sampling rate : 48.0 KHz
Bit depth : 16 bits
Compression mode : Lossy
Stream size : 287 MiB (9%)
Title : Original (Eng)
Language : English
Default : No
Forced : No

Text #1
ID : 4
Format : UTF-8
Codec ID : S_TEXT/UTF8
Codec ID/Info : UTF-8 Plain Text
Title : Rus Full
Language : Russian
Default : No
Forced : No

Text #2
ID : 5
Format : UTF-8
Codec ID : S_TEXT/UTF8
Codec ID/Info : UTF-8 Plain Text
Title : Rus Forced
Language :
a0d955b59d91bdcc5a10cf9505fa231b2790e06eФантомы / Shutter (Масаюки Очиай, ужасы, триллер, детектив, 2008) [BDRip-AVC, Полное дублирование + Оригинал + Sub] Фантомы / Shutter (Масаюки Очиай, ужасы, триллер, детектив, 2008) [BDRip-AVC, Полное дублирование + Оригинал + Sub] " />

Аплоадер: Админ, дата: 16-05-2012, 00:27, торрент скачан: 359 раз

Понравилась раздача? Посмотрите эти:
  • Пастырь / Priest (Скотт Чарльз Стюарт, ужасы, фантастика, боевик, триллер, ...
  • Четвертый вид / The Fourth Kind (Олатунде Осунсанми, ужасы, фантастика, 200 ...
  • Фантомы / Shutter (Масаюки Очиай, ужасы, триллер, детектив, 2008) [BDRip-AV ...
  • Цель Номер Один / Zero Dark Thirty (Кэтрин Бигелоу, Триллер, драма, история ...
  • Сайлент Хилл 2 / Silent Hill: Revelation 3D (Майкл Дж. Бассетт, ужасы, трил ...
  • Экипаж / Flight (Роберт Земекис, Драма, 2012) [BDRip-AVC, Профессиональный ...
  • Фантомы / Shutter [UNRATED] (Масаюки Отиай, ужасы, триллер, детектив, 2008 ...
  • Паранормальное явление 2 / Paranormal Activity 2 [Theatrical Сut / Театраль ...
  • Хранитель времени / Hugo (Мартин Скорсезе, Драма, 2011) [BDRip-AVC, Професс ...
  • Вампирский засос / Vampires Suck (Джейсон Фридберг, Аарон Зельцер, комедия, ...
  • Репортаж из преисподней / [REC] 2 (Жауме Балагуэро, Пако Пласа, ужасы, трил ...
  • Робин Гуд [Режиссёрская версия] / Robin Hood [Directors Cut] (Ридли Скотт / ...
  • Коллекционер 2 / The Collection (Маркус Данстэн, ужасы, боевик, триллер , 2 ...
  • Паранормальное явление 3 / Paranormal Activity 3 [Theatrical Cut] (Генри Дж ...
  • Домашняя работа / The Art of Getting By (Гэвин Вьесен, драма, мелодрама, 20 ...
  • Другой мир: Пробуждение / Underworld: Awakening (Монс Морлинд, Бьёрн Стейн, ...
  • Ворон / The Raven (Джеймс МакТиг, Триллер, детектив, 2012) [BDRip 720p, Дуб ...
  • Фантомы / Shutter (Масаюки Очиай / Masayuki Ochiai, ужасы, триллер, детекти ...
  • Хостел 3 / Hostel: Part III (Скотт Спигел / Scott Spiegel, ужасы, триллер, ...
  • Фантомы / Shutter (Масаюки Очиай, ужасы, триллер, детектив , 2008) [BDRip, ...
  • Информация
    Посетители, находящиеся в группе Гости, не могут оставлять комментарии к данной публикации.