вход на сайт

Имя пользователя :
Пароль :

Восстановление пароля Регистрация
Остановка / Rest Stop: Dead Ahead (Джон Шибан, ужасы, триллер, 2006) [HDRip, Профессиональный (многоголосый закадровый)]
Рейтинг:
(голосов: 1)



[img]{THEME}/images/logopost.png[/img]



Остановка / Rest Stop: Dead Ahead

Год выпуска: 2006
Страна: США
Производство: Raw Feed
Жанр: ужасы, триллер

Режиссёр: Джон Шибан
В ролях: Джейми Александр, Джои Мендицино, Дианна Руссо, Дайан Салинджер, Кертис Тейлор, Джозеф Лоуренс, Гари Энтин, Эдмунд Энтин, Дженнифер Кормак, Мики Пост...

Перевод: Профессиональный (многоголосый закадровый)
Субтитры: Отсутствуют

Описание: Двое молодых людей во время поездке из Техаса в Калифорнию останавливаются передохнуть и сделать свои дела. Когда Николь возвращается к месту остановки, ни ее друга, ни автомобиля нет на месте.

И тут, как водится, появляется психопат на желтом грузовике и начинается игра в кошки-мышки. Задача проста — Николь в течение ночи должна найти и спасти своего приятеля и к тому же остаться в живых…



Релиз от:

Качество: HDRip [ исх. BDRip 1080p ]
Продолжительность: 01:25:18 час.

Формат: AVI
Видео кодек: XviD
Аудио кодек: AC3 Dolby Digital
Видео: 688x288 (2.40:1), 23.976 fps, XviD build 65, ~1024 kbps avg, 0.205 bit/pixel
Аудио: 48 kHz, AC3 Dolby Digital, 2 ch, 192 kbps | Russian (MVO)

Премьера (мир): 7 октября 2006
Mediainfo ▼General
Complete name : /Torrents/home/borodach/data/Rest Stop.Dont Look Back.2008.HDRip.XviD.745MB. rip by [Assassins Creed].avi
Format : AVI
Format/Info : Audio Video Interleave
File size : 747 MiB
Duration : 1h 29mn
Overall bit rate : 1 173 Kbps
Writing application : VirtualDubMod 1.5.10.2 (build 2540/release)
Writing library : VirtualDubMod build 2540/release

Video
ID : 0
Format : MPEG-4 Visual
Format profile : Advanced [email protected]
Format settings, BVOP : 1
Format settings, QPel : No
Format settings, GMC : No warppoints
Format settings, Matrix : Default (MPEG)
Codec ID : XVID
Codec ID/Hint : XviD
Duration : 1h 29mn
Bit rate : 972 Kbps
Width : 688 pixels
Height : 288 pixels
Display aspect ratio : 2.40:1
Frame rate : 23.976 fps
Color space : YUV
Chroma subsampling : 4:2:0
Bit depth : 8 bits
Scan type : Progressive
Compression mode : Lossy
Bits/(Pixel*Frame) : 0.205
Stream size : 619 MiB (83%)
Writing library : XviD 1.2.1 (UTC 2008-12-04)

Audio
ID : 1
Format : AC-3
Format/Info : Audio Coding 3
Mode extension : CM (complete main)
Codec ID : 2000
Duration : 1h 29mn
Bit rate mode : Constant
Bit rate : 192 Kbps
Channel(s) : 2 channels
Channel positions : Front: L R
Sampling rate : 48.0 KHz
Bit depth : 16 bits
Compression mode : Lossy
Stream size : 122 MiB (16%)
Alignment : Aligned on interleaves
Interleave, duration : 42 ms (1.00 video frame)
Interleave, preload duration : 512 ms


0b5564e9fa726555288893b85d4d069480b9fe58Остановка / Rest Stop: Dead Ahead (Джон Шибан, ужасы, триллер, 2006) [HDRip, Профессиональный (многоголосый закадровый)] Остановка / Rest Stop: Dead Ahead (Джон Шибан, ужасы, триллер, 2006) [HDRip, Профессиональный (многоголосый закадровый)] " />

Аплоадер: Админ, дата: 8-05-2012, 00:04, торрент скачан: 359 раз

Понравилась раздача? Посмотрите эти:
  • Погнали! / Getaway (Кортни Соломон, Боевик, Криминал, 2013) [HDRip, Професс ...
  • Верное дельце / Une pure affaire (Александр Коффре, Боевик, Комедия, Кримин ...
  • Вторжение динозавра / Gwoemul (Пон Чжун Хо, Ужасы, Фантастика, Триллер, Дра ...
  • Ночь тамплиера / Night of the Templar (Пол Сэмпсон, Ужасы, фантастика, боев ...
  • Звук моего голоса / Sound of My Voice (Зал Батманглидж, триллер, драма, 201 ...
  • 23:59 / 23:59 (Гилберт Чан, Ужасы, 2011) [HDRip, Любительский (одноголосый ...
  • Остановка 2: Не оглядывайся назад / Rest Stop: Dont Look Back (Шоун Папазян ...
  • Остановка 2: Не оглядывайся назад / Rest Stop: Dont Look Back (Шоун Папазян ...
  • Остановка / Rest Stop: Dead Ahead (Джон Шибан, ужасы, триллер, 2006) [BDRip ...
  • Захват / Carjacked (Джон Бонито, триллер, 2011)[BDRip, Профессиональный (мн ...
  • Ночь живых мертвецов: Начало / Night of the Living Dead 3D: Re-Animation (Д ...
  • Битва в пустыне / The Objective (Дэниэл Мирик, ужасы, фантастика, триллер, ...
  • Остаться в живых / Stay Alive (Уильям Брент Белл, ужасы, триллер, 2006) [DV ...
  • Последний отпуск / Last Holiday (Уэйн Ван, Драма, комедия, приключения, 200 ...
  • Остановка / Rest Stop: Dead Ahead [UNCUT] (Джон Шибан, ужасы, триллер, 2006 ...
  • Полусвет / Half Light (Крэйг Розенберг, Ужасы, триллер, драма, детектив, 20 ...
  • Супершторм в Сиэтле / Seattle Superstorm (Джейсон Бурк, фантастика, боевик ...
  • Инкубус / Inkubus (Гленн Чиано, Ужасы, 2011) [DVDRip, Профессиональный (мно ...
  • Три балбеса / The Three Stooges (Бобби Фаррелли, Питер Фаррелли, Комедия, 2 ...
  • Девушки в опасности / Damsels in Distress (Уит Стиллман, драма, мелодрама, ...
  • Глушь / Resurrection County (Matt Zettell, ужасы, триллер, 2008) [DVDRip, П ...
  • Искажение / Skew (Сейв Челенз, ужасы, триллер, 2011) [HDRip, Профессиональн ...
  • Мертвеход / The Revenant (Д. Керри Прайор, ужасы, комедия, 2009) [HDRip, Пр ...
  • Татуировщик / The Tattooist (Питер Бюргер, ужасы, триллер, 2007) [HDRip, Пр ...
  • Ничего, кроме правды / Nothing But the Truth (Род Лури, триллер, драма, 200 ...
  • Информация
    Посетители, находящиеся в группе Гости, не могут оставлять комментарии к данной публикации.