вход на сайт

Имя пользователя :
Пароль :

Восстановление пароля Регистрация
Остановка 2: Не оглядывайся назад / Rest Stop: Dont Look Back (Шоун Папазян /Shawn Papazian,ужасы, триллер,2008) [HDRip, Профессиональный (двухголосый закадровый)]
Рейтинг:
(голосов: 1)



[img]{THEME}/images/logopost.png[/img]



Остановка 2: Не оглядывайся назад / Rest Stop: Dont Look Back

Год выпуска: 2008
Страна: США
Производство: Raw Feed
Жанр: ужасы, триллер

Режиссёр: Шоун Папазян
В ролях: Ричард Тиллман, Джесси Уорд, Грэхэм Норрис, Джои Мендицино, Джули Монд, Дайан Салинджер

Перевод: Профессиональный (двухголосый закадровый)
Субтитры: Отсутствуют

Описание: Капрал Том Хилтс после долгого отсутствия возвращается в родной Техас, чтобы отыскать своего брата Джеймса, который год назад поехал со своей подружкой в Калифорнию и не вернулся. Заручившись помощью пары друзей, Том отправляется с ними по следам брата, но остановка на самой обычной пустынной бензоколонке вскоре кардинально меняет планы всех троих.



Релиз от:

Качество: HDRip [ исх. BDRip 1080p ]
Продолжительность: 01:25:22 час.

Формат: AVI
Видео кодек: XviD
Аудио кодек: AC3 Dolby Digital
Видео: 688x288 (2.40:1), 23.976 fps, XviD build 65, ~972 kbps avg, 0.205 bit/pixel
Аудио: 48 kHz, AC3 Dolby Digital, 2 ch, 192 kbps | Russian (DVO)

Премьера (мир): 30 сентября 2008
Mediainfo ▼General
Complete name : /Torrents/home/borodach/data/Rest Stop.Dont Look Back.2008.HDRip.XviD.745MB. rip by [Assassins Creed].avi
Format : AVI
Format/Info : Audio Video Interleave
File size : 747 MiB
Duration : 1h 29mn
Overall bit rate : 1 173 Kbps
Writing application : VirtualDubMod 1.5.10.2 (build 2540/release)
Writing library : VirtualDubMod build 2540/release

Video
ID : 0
Format : MPEG-4 Visual
Format profile : Advanced [email protected]
Format settings, BVOP : 1
Format settings, QPel : No
Format settings, GMC : No warppoints
Format settings, Matrix : Default (MPEG)
Codec ID : XVID
Codec ID/Hint : XviD
Duration : 1h 29mn
Bit rate : 972 Kbps
Width : 688 pixels
Height : 288 pixels
Display aspect ratio : 2.40:1
Frame rate : 23.976 fps
Color space : YUV
Chroma subsampling : 4:2:0
Bit depth : 8 bits
Scan type : Progressive
Compression mode : Lossy
Bits/(Pixel*Frame) : 0.205
Stream size : 619 MiB (83%)
Writing library : XviD 1.2.1 (UTC 2008-12-04)

Audio
ID : 1
Format : AC-3
Format/Info : Audio Coding 3
Mode extension : CM (complete main)
Codec ID : 2000
Duration : 1h 29mn
Bit rate mode : Constant
Bit rate : 192 Kbps
Channel(s) : 2 channels
Channel positions : Front: L R
Sampling rate : 48.0 KHz
Bit depth : 16 bits
Compression mode : Lossy
Stream size : 122 MiB (16%)
Alignment : Aligned on interleaves
Interleave, duration : 42 ms (1.00 video frame)
Interleave, preload duration : 512 ms


407a4edbae6a1632eba12d34843aabe5baff2355Остановка 2: Не оглядывайся назад / Rest Stop: Dont Look Back (Шоун Папазян /Shawn Papazian,ужасы, триллер,2008) [HDRip, Профессиональный (двухголосый закадровый)] Остановка 2: Не оглядывайся назад / Rest Stop: Dont Look Back (Шоун Папазян /Shawn Papazian,ужасы, триллер,2008) [HDRip, Профессиональный (двухголосый закадровый)] " />

Аплоадер: Админ, дата: 7-05-2012, 19:46, торрент скачан: 359 раз

Понравилась раздача? Посмотрите эти:
  • Погнали! / Getaway (Кортни Соломон, Боевик, Криминал, 2013) [HDRip, Професс ...
  • Вирус / Flu (Ким Сон Су, Драма, 2013) [HDTVRip, Любительский (двухголосый з ...
  • Финал / The Final (Джои Стюарт, ужасы, триллер, драма, 2010) [HDRip, Профес ...
  • Слабые проблески / Rushlights (Энтони Стац, Триллер, Мелодрама, Криминал, 2 ...
  • Ночь тамплиера / Night of the Templar (Пол Сэмпсон, Ужасы, фантастика, боев ...
  • Сломленные / Broken (Руфус Норрис, драма, 2012) [HDRip, Профессиональный (м ...
  • Звук моего голоса / Sound of My Voice (Зал Батманглидж, триллер, драма, 201 ...
  • Колония / The Colony (Джефф Ренфро, фантастика, боевик, триллер, 2013) [DVD ...
  • 23:59 / 23:59 (Гилберт Чан, Ужасы, 2011) [HDRip, Любительский (одноголосый ...
  • Заноза / Splinter (Тоби Уилкинс, Ужасы, Триллер, 2008) [HDRip, Профессионал ...
  • Простые истины / Straight As (Джеймс Кокс, драма, комедия, 2013) [HDRip, П ...
  • Остановка / Rest Stop: Dead Ahead (Джон Шибан, ужасы, триллер, 2006) [HDRip ...
  • Остановка 2: Не оглядывайся назад / Rest Stop: Dont Look Back (Шоун Папазян ...
  • Остановка / Rest Stop: Dead Ahead (Джон Шибан, ужасы, триллер, 2006) [BDRip ...
  • Джефф, живущий дома / Jeff, Who Lives at Home (Джей Дюпласс, Марк Дюпласс, ...
  • Коллекционер 2 / The Collection (Маркус Данстэн, ужасы, боевик, триллер , 2 ...
  • The Black Eyed Peas / The E.N.D. World Tour [2010, RnB, HDRip]
  • Битва в пустыне / The Objective (Дэниэл Мирик, ужасы, фантастика, триллер, ...
  • Последний отпуск / Last Holiday (Уэйн Ван, Драма, комедия, приключения, 200 ...
  • Трус / Faintheart (Вито Рокко, Комедия, 2008) [BDRip, Профессиональный (дву ...
  • Остановка / Rest Stop: Dead Ahead [UNCUT] (Джон Шибан, ужасы, триллер, 2006 ...
  • Полусвет / Half Light (Крэйг Розенберг, Ужасы, триллер, драма, детектив, 20 ...
  • Глушь / Resurrection County (Matt Zettell, ужасы, триллер, 2008) [DVDRip, П ...
  • Искажение / Skew (Сейв Челенз, ужасы, триллер, 2011) [HDRip, Профессиональн ...
  • Ничего, кроме правды / Nothing But the Truth (Род Лури, триллер, драма, 200 ...
  • Информация
    Посетители, находящиеся в группе Гости, не могут оставлять комментарии к данной публикации.