вход на сайт

Имя пользователя :
Пароль :

Восстановление пароля Регистрация
Шёлк / Gui si (Чау-Бин Су, ужасы, фантастика, триллер, драма, 2006) [DVDRip-AVC, Профессиональный(многоголосый закадровый)+ Оригинал + Sub]
Рейтинг:
(голосов: 1)



[img]{THEME}/images/logopost.png[/img]



Шёлк / Gui si
«The Worlds First Caught Spirit»

Год выпуска: 2006
Страна: Тайвань
Жанр: ужасы, фантастика, триллер, драма

Режиссёр: Чау-Бин Су
В ролях: Чжэнь Чжан, Чэнь Болинь, Йосуке Егучи, Барби Хсю, Кар Ян Лам, Кевин С. Смит

Перевод: Профессиональный(многоголосый закадровый)
Субтитры: русские

Описание: Вооружившись новым изобретением, группа ученых овладевает энергией привидения ребенка. Чтобы узнать его прошлое, они обращаются за помощью к агенту Е, члену организации по расследованию преступлений. Е мучает ощущение вины в смерти собственной матери, и он соглашается помочь, надеясь получить от призрака ответы на вопросы о жизни и смерти и о жизни после смерти. Используя изобретение, Е получает способность видеть привидение. Он замечает нить шелка, которая соединяет призрака с таинственной энергией. Следуя за шелковой нитью, Е сталкивается с ужасающей правдой смерти ребенка.
Релиз от:
Автор рипа: Captain Evidence

Качество: DVDRip-AVC
Продолжительность: 01:44:06

Формат: MKV
Видео кодек: x264
Аудио кодек: AС3
Видео: 704x296 (2,40:1), 25,000 fps, x264, [email protected] ~1373 kbps avg, 0.264 bit/pixel
Аудио #1: Russian (Dolby AC3, 6 ch), 48,0 КГц, 384 kbps
Аудио #2: Chinese (Dolby AC3, 2 ch), 48,0 КГц, 192 kbps
"Mediainfo" ▼
Имя : Gui.si.2006.DVDRip.x264.AC3.-R.G.Shadoof.mkv
Формат : Matroska
Версия формата : Version 2
Размер файла : 1,45 Гбайт
Продолжительность : 1 ч. 44 м.
Общий поток : 1989 Кбит/сек
Дата кодирования : UTC 2012-04-16 09:09:28
Программа кодирования : mkvmerge v4.9.1 (Ich will) сборка от Jul 11 2011 23:53:15
Библиотека кодирования : libebml v1.2.1 + libmatroska v1.1.1

Видео
Идентификатор : 1
Формат : AVC
Формат/Информация : Advanced Video Codec
Профиль формата : [email protected]
Параметр CABAC формата : Да
Параметр ReFrames формата : 11 кадров
Идентификатор кодека : V_MPEG4/ISO/AVC
Продолжительность : 1 ч. 44 м.
Битрейт : 1373 Кбит/сек
Ширина : 704 пикселя
Высота : 296 пикселей
Соотношение сторон : 2,40:1
Частота кадров : 25,000 кадров/сек
Цветовое пространство : YUV
Субдискретизация насыщенности : 4:2:0
Битовая глубина : 8 бит
Тип развёртки : Прогрессивная
Бит/(Пиксели*Кадры) : 0.264
Размер потока : 1022 Мбайт (69%)
Заголовок : Rip by Captain Evidence
Библиотека кодирования : x264 core 116 r2074 2641b9e
Настройки программы : cabac=1 / ref=11 / deblock=1:0:0 / analyse=0x3:0x113 / me=umh / subme=10 / psy=1 / psy_rd=1.05:0.10 / mixed_ref=1 / me_range=48 / chroma_me=1 / trellis=2 / 8x8dct=1 / cqm=0 / deadzone=21,11 / fast_pskip=0 / chroma_qp_offset=-5 / threads=3 / sliced_threads=0 / nr=0 / decimate=0 / interlaced=0 / bluray_compat=0 / constrained_intra=0 / bframes=11 / b_pyramid=2 / b_adapt=2 / b_bias=0 / direct=1 / weightb=1 / open_gop=0 / weightp=2 / keyint=250 / keyint_min=25 / scenecut=40 / intra_refresh=0 / rc_lookahead=60 / rc=crf / mbtree=0 / crf=16.4 / qcomp=0.60 / qpmin=10 / qpmax=69 / qpstep=4 / vbv_maxrate=62500 / vbv_bufsize=50000 / crf_max=0.0 / nal_hrd=none / ip_ratio=1.40 / pb_ratio=1.30 / aq=1:1.00
Язык : Chinese
Default : Да
Forced : Нет

Аудио #1
Идентификатор : 2
Формат : AC-3
Формат/Информация : Audio Coding 3
Расширение режима : CM (complete main)
Идентификатор кодека : A_AC3
Продолжительность : 1 ч. 44 м.
Вид битрейта : Постоянный
Битрейт : 384 Кбит/сек
Каналы : 6 каналов
Расположение каналов : Front: L C R, Side: L R, LFE
Частота : 48,0 КГц
Битовая глубина : 16 бит
Метод сжатия : С потерями
Размер потока : 286 Мбайт (19%)
Заголовок : R5
Язык : Russian
Default : Да
Forced : Нет

Аудио #2
Идентификатор : 3
Формат : AC-3
Формат/Информация : Audio Coding 3
Расширение режима : CM (complete main)
Идентификатор кодека : A_AC3
Продолжительность : 1 ч. 44 м.
Вид битрейта : Постоянный
Битрейт : 192 Кбит/сек
Каналы : 2 канала
Расположение каналов : Front: L R
Частота : 48,0 КГц
Битовая глубина : 16 бит
Метод сжатия : С потерями
Размер потока : 143 Мбайт (10%)
Заголово
44e3ad298dc7816fadb41fa9a24d6e9859ad78eaШёлк / Gui si (Чау-Бин Су, ужасы, фантастика, триллер, драма, 2006) [DVDRip-AVC, Профессиональный(многоголосый закадровый)+ Оригинал + Sub] Шёлк / Gui si (Чау-Бин Су, ужасы, фантастика, триллер, драма, 2006) [DVDRip-AVC, Профессиональный(многоголосый закадровый)+ Оригинал + Sub] " />

Аплоадер: Админ, дата: 27-04-2012, 23:13, торрент скачан: 359 раз

Понравилась раздача? Посмотрите эти:
  • Ночь страха 2: Свежая кровь / Fright Night 2: New Blood (Эдуардо Родригез, ...
  • Ночь страха 2: Свежая кровь / Fright Night 2: New Blood (Эдуардо Родригез, ...
  • Погнали! / Getaway (Кортни Соломон, боевик, криминал, 2013) [BDRip-AVC, Про ...
  • Война миров Z / World War Z [Theatrical Cut] (Марк Форстер, ужасы, фантасти ...
  • Больше чем мёд / More Than Honey (документальный, 2012) [BDRip 720p, Профес ...
  • Никто не выжил / No One Lives (Рюхэй Китамура, Триллер, ужасы, 2012) [BDRip ...
  • Залив / The Bay (Барри Левинсон, Ужасы, фантастика, триллер, 2012) [BDRip-A ...
  • Порочные игры / Stoker (Пак Чхан Ук, Триллер, драма, детектив, 2013) [BDRip ...
  • Порочные игры / Stoker (Пак Чхан Ук, Триллер, драма, детектив, 2013) [BDRip ...
  • Пакт / The Pact (Николас МакКарти, ужасы, триллер, детектив, 2012) [BDRip-A ...
  • Призраки / Ghosted (Крэйг Вивейрос, Триллер, драма, 2011) [BDRip-AVC, Профе ...
  • Мрачные небеса / Dark Skies (Скотт Чарльз Стюарт, ужасы, фантастика, трилле ...
  • Суррогат / The Sessions (Бен Луин, Драма, 2012) [BDRip-AVC, Профессиональны ...
  • Иностранный легион / La cité (Ким Нгуйен / Kim Nguyen, драма, 2010) [DVDRip ...
  • Дьявол / Devil (Джон Эрик Даудл / John Erick Dowdle,ужасы, триллер, детекти ...
  • 2016: Конец ночи / Hell (Тим Фельбаум, ужасы, фантастика, триллер, 2011) [D ...
  • Образец 47 / Marvel One-Shot: Item 47 (Луис Д’Эспозито, короткометражка, фа ...
  • Судный день / The Day (Дуглас Арниокоски, фантастика, триллер, драма, 2011) ...
  • Эд Вуд / Ed Wood (Тим Бёртон, драма, комедия, биография, 1994) [BDRip-AVC, ...
  • Поворот не туда 5 / Wrong Turn 5 (Деклан О’Брайэн, ужасы, триллер, 2012) [B ...
  • Котенок с улицы Лизюкова (Вячеслав Котеночкин, Мультфильм, 1988) [DVDRip-AV ...
  • [3D] Путешествие к Центру Земли 3D / Journey to the Center of the Earth 3D ...
  • Ренессанс / Renaissance (Кристиан Волькман / мультфильм, фантастика, боевик ...
  • Павшая империя / Hirokin (Алехо Мо-Сан, фантастика, боевик, драма, приключе ...
  • [NG] Гитлеровские лагеря смерти / Hitlers G.I. Death Camp (документальный, ...
  • Информация
    Посетители, находящиеся в группе Гости, не могут оставлять комментарии к данной публикации.