вход на сайт

Имя пользователя :
Пароль :

Восстановление пароля Регистрация
Другой / Godsend (Ник Хэмм, Ужасы, триллер, драма, 2004) [BDRip-AVC, Дублированный + Оригинал + Sub]
Рейтинг:
(голосов: 1)



[img]{THEME}/images/logopost.png[/img]



Другой / Godsend
«Adam Duncan. Born: December 11, 1987. Died: December 12, 1995. Born September 23, 1996.»

Год выпуска: 2004
Страна: США Канада
Производство: Universum Film, Lions Gate Films
Жанр: ужасы, фантастика, триллер, драма

Режиссёр: Ник Хэмм
В ролях: Грег Киннер, Ребекка Ромин, Роберт Де Ниро, Камерон Брайт, Мервин Мондесер, Сава Дрейтон, Джэйк Саймонс, Эль Даунс, Эди Никсеттер, Рауль Банеджа, Дженни Ливайн, Томас Чэмберс, Манро Чэмберс, Джефф Кристенсен, Дебора Оделл, и др.

Перевод: Дублированный (Мосфильм-мастер) + Оригинал
Субтитры: Русские

Описание: Это случилось в тот момент, когда счастливая семья — Пол, Джесси и их сын Адам — готовились к переезду в связи с приглашением Пола на другую работу. В день своего восьмилетия под колёсами автомобиля погиб Адам, сделав своих родителей глубоко несчастными людьми. На похоронах супругов окликнул незнакомец, оказавшийся известным учёным-генетиком Ричардом Уэллсом.

Уэллс сказал, что он в состоянии вернуть им сына в точности таким же, каков тот был при жизни, то есть клонировать его, использовав ген погибшего мальчика. Возмущенный Пол с негодованием отвергает кощунственное, с его точки зрения, предложение. Но Ричард оставляет Джесси свой телефон и советует подумать
"Знаете ли вы, что..." ▼Изначально планировалось, что у Роберта Де Ниро будет лишь небольшое камео в картине «Другой», но когда режиссер картины Ник Хэмм узнал, что актер заинтересовался проектом, он убедил его сыграть одну из главных ролей.

Более точный перевод названия - «Дар богов».


Качество: BDRip-AVC (BDRemux)
Продолжительность: 01:42:40 час.

Формат: AVI
Видео кодек: AVC
Аудио кодек: AC3
Видео: 1024х436 (2.35:1), 23,976 fps, AVC ~1 905 kbps avg, 0.178 bit/pixel
Аудио: 48 kHz, AC3, 6 ch, ~448.00 kbps avg | Russian (DUB)
Аудио: 48 kHz, AC3, 6 ch, ~448.00 kbps avg | English

Премьера (мир): 30 апреля 2004
Премьера (РФ): 4 июня 2004, «Централ Партнершип»
Mediainfo ▼C:Godsend.2004.x264.BDRip.AVC.mkv
General
Complete name : C:Godsend.2004.x264.BDRip.AVC.mkv
Format : Matroska
File size : 2.05 GiB
Duration : 1h 42mn
Overall bit rate : 2 858 Kbps
Encoded date : UTC 2011-12-19 01:28:02
Writing application : mkvmerge v4.6.0 (Still Crazy After All These Years) сборка от Apr 1 2011 21:01:49
Writing library : libebml v1.2.0 + libmatroska v1.1.0
Video #1
ID : 1
Format : AVC
Format/Info : Advanced Video Codec
Format profile : [email protected]
Format settings, CABAC : Yes
Format settings, ReFrames : 8 frames
Muxing mode : Container [email protected]
Codec ID : V_MPEG4/ISO/AVC
Duration : 1h 42mn
Bit rate : 1 905 Kbps
Nominal bit rate : 1 961 Kbps
Width : 1 024 pixels
Height : 436 pixels
Display aspect ratio : 2.35:1
Frame rate : 23.976 fps
Resolution : 8 bits
Colorimetry : 4:2:0
Scan type : Progressive
Bits/(Pixel*Frame) : 0.178
Stream size : 1.36 GiB (67%)
Title : Drugoy / Godsend
Writing library : x264 core 118 r2085 8a62835
Encoding settings : cabac=1 / ref=8 / deblock=1:-2:-2 / analyse=0x3:0x133 / me=umh / subme=10 / psy=1 / psy_rd=0.90:0.00 / mixed_ref=1 / me_range=48 / chroma_me=1 / trellis=2 / 8x8dct=1 / cqm=0 / deadzone=21,11 / fast_pskip=0 / chroma_qp_offset=-2 / threads=6 / sliced_threads=0 / nr=0 / decimate=1 / interlaced=0 / bluray_compat=0 / constrained_intra=0 / bframes=6 / b_pyramid=2 / b_adapt=2 / b_bias=0 / direct=3 / weightb=1 / open_gop=0 / weightp=2 / keyint=250 / keyint_min=23 / scenecut=40 / intra_refresh=0 / rc=2pass / mbtree=0 / bitrate=1961 / ratetol=1.0 / qcomp=0.60 / qpmin=10 / qpmax=51 / qpstep=4 / cplxblur=20.0 / qblur=0.5 / ip_ratio=1.40 / pb_ratio=1.30 / aq=2:1.00
Audio #2
ID : 2
Format : AC-3
Format/Info : Audio Coding 3
Codec ID : A_AC3
Duration : 1h 42mn
Bit rate mode : Constant
Bit rate : 448 Kbps
Channel(s) : 6 channels
Channel positions : Front: L C R, Surround: L R, LFE
Sampling rate : 48.0 KHz
Stream size : 329 MiB (16%
fec1ebc056f6153f7cc2435efd31058230fbca0eДругой / Godsend (Ник Хэмм, Ужасы, триллер, драма, 2004) [BDRip-AVC, Дублированный + Оригинал + Sub] Другой / Godsend (Ник Хэмм, Ужасы, триллер, драма, 2004) [BDRip-AVC, Дублированный + Оригинал + Sub] " />

Аплоадер: Админ, дата: 27-04-2012, 03:04, торрент скачан: 359 раз

Понравилась раздача? Посмотрите эти:
  • Пастырь / Priest (Скотт Чарльз Стюарт, ужасы, фантастика, боевик, триллер, ...
  • Судная ночь / The Purge (Джеймс ДеМонако, триллер, ужасы, 2013) [BDRip-AVC, ...
  • Соучастник / Collateral (Майкл Манн, Триллер, драма, криминал, 2004) [BDRip ...
  • Убить Боно / Killing Bono (Ник Хэмм, комедия, 2010) [BDRip 720p, Профессион ...
  • Аноним / Anonymous (Роланд Эммерих, триллер, драма, 2011) [BDRip-AVC, Профе ...
  • Химера / Splice (Винченцо Натали, фантастика, триллер, драма, 2009) [BDRip ...
  • Затаившиеся / Hidden (Антуан Томас, ужасы, триллер, 2011) [HDRip-AVC, Дубли ...
  • Повторяющие / Repeaters (Карл Бессай, фантастика, боевик, триллер, драма, к ...
  • Любимые / The Loved Ones (Шон Бирн, ужасы, триллер, драма, 2009) [BDRip-AVC ...
  • Исходный код / Source Code (Дункан Джонс, Фантастика, боевик, триллер, драм ...
  • Город воров [Театральная версия] / The Town [Theatrical cut] (Бен Аффлек, т ...
  • Красная шапочка / Red Riding Hood (Кэтрин Хардвик, ужасы, фэнтези, триллер, ...
  • Каратель / The Punisher (Джонатан Хенсли ,Боевик, Триллер, Драма, Криминал, ...
  • Экстрасенс / The Awakening (Ник Мерфи, ужасы, триллер, 2011) [BDRip 720p, Д ...
  • Путешествие на край Вселенной / Journey to the Edge of the Universe (Явар А ...
  • Хижина в лесу / The Cabin in the Woods (Дрю Годдард, Ужасы, фантастика, три ...
  • Красные огни / Red Lights (Родриго Кортес, Ужасы, триллер, драма, 2012) [BD ...
  • Оборотень: Зверь среди нас / Werewolf: The Beast Among Us (Луи Морно, ужасы ...
  • Другой / Godsend (Ник Хэмм, Ужасы, триллер, драма, 2004) [BDRip, Профессион ...
  • Другой / Godsend (Ник Хэмм , ужасы, фантастика, триллер, драма, 2004) [BDRi ...
  • Информация
    Посетители, находящиеся в группе Гости, не могут оставлять комментарии к данной публикации.