вход на сайт

Имя пользователя :
Пароль :

Восстановление пароля Регистрация
Обряд / The Rite (Микаэль Хафстрем, ужасы, триллер, драма, 2011) [BDRip-AVC, Профессиональный (многоголосый закадровый) + Оригинал + Sub]
Рейтинг:
(голосов: 1)



[img]{THEME}/images/logopost.png[/img]



Обряд / The Rite
«You can only defeat it when you believe.»

Год выпуска: 2011
Страна: США Венгрия
Производство: New Line Cinema
Жанр: ужасы, триллер, драма

Режиссёр: Микаэль Хофстрём
В ролях: Энтони Хопкинс, Колин О’Донохью, Алиси Брага, Киаран Хайндс, Тоби Джонс, Рутгер Хауэр, Марта Гастини, Мария Грация Кучинотта, Арианна Веронези, Андре Каллиджари

Перевод: Профессиональный (многоголосый закадровый) | Лицензия + Оригинал
Субтитры: Русские (2 вида), Английские (полные + форсированные)

Описание: Студент духовной семинарии, отправляется в Ватикан учиться экзорцизму. При этом он сомневается как в этой противоречивой практике, так и в религии как таковой. Лишь когда он становится учеником легендарного отца Лукаса, который проводил обряд изгнания дьявола тысячи раз, его скептицизм начинает таять.

И вот, когда очередное дело об одержимости дьяволом оказывается не по силам самому отцу Лукасу, молодой семинарист сталкивается лицом к лицу с феноменом, который наука неспособна ни объяснить, ни контролировать. Чтобы выжить в противостоянии с ужасающим злом, ему предстоит понять: во что он действительно верит?



Релиз:
Автор рипа: Vaippp

Качество: BDRip-AVC | исх. Blu-Ray-Remux/Обряд (2011. The Rite)
Продолжительность: 01:53:42 час.

Формат: MKV
Видео кодек: AVC
Аудио кодек: AC3
Видео: 1268x528 (2.40:1), 23.976 fps, AVC ~1 785 kbps avg, 0.111 bit/pixel
Аудио: 48.0 KHz, AC3, 2 ch, 192 kbps | Russian (MVO)
Аудио: 48.0 KHz, AC3, 6 ch, 448 kbps | English

Премьера (мир): 26 января 2011
Mediainfo ▼General
Unique ID : 212688437495362722391346567993039516221 (0xA0024D95527879D68846A8FCEE9FF23D)
Complete name : I:OtherObryad.2011.DUAL.BDRip-AVC.AC3.-HQ-ViDEO.mkv
Format : Matroska
Format version : Version 2
File size : 2.18 GiB
Duration : 1h 53mn
Overall bit rate : 2 474 Kbps
Movie name : Obryad / 2011 / Release by Vaippp / HQ-ViDEO
Encoded date : UTC 2011-07-30 13:58:34
Writing application : mkvmerge v4.9.1 (Ich will) сборка от Jul 11 2011 23:53:15
Writing library : libebml v1.2.1 + libmatroska v1.1.1
Video
ID : 1
Format : AVC
Format/Info : Advanced Video Codec
Format profile : [email protected]
Format settings, CABAC : Yes
Format settings, ReFrames : 6 frames
Format settings, GOP : M=1, N=51
Codec ID : V_MPEG4/ISO/AVC
Duration : 1h 53mn
Bit rate : 1 785 Kbps
Nominal bit rate : 2 107 Kbps
Width : 1 268 pixels
Height : 528 pixels
Display aspect ratio : 2.40:1
Frame rate : 23.976 fps
Color space : YUV
Chroma subsampling : 4:2:0
Bit depth : 8 bits
Scan type : Progressive
Bits/(Pixel*Frame) : 0.111
Stream size : 1.57 GiB (72%)
Title : BDRip 30/07/2011
Writing library : x264 core 116 r2037 f8ebd4a
Encoding settings : cabac=1 / ref=6 / deblock=1:-3:-2 / analyse=0x3:0x113 / me=umh / subme=10 / psy=1 / psy_rd=1.00:0.15 / mixed_ref=1 / me_range=32 / chroma_me=1 / trellis=2 / 8x8dct=1 / cqm=0 / deadzone=21,11 / fast_pskip=0 / chroma_qp_offset=-3 / threads=12 / sliced_threads=0 / nr=0 / decimate=1 / interlaced=0 / bluray_compat=0 / constrained_intra=0 / bframes=8 / b_pyramid=2 / b_adapt=2 / b_bias=0 / direct=3 / weightb=1 / open_gop=0 / weightp=2 / keyint=250 / keyint_min=23 / scenecut=40 / intra_refresh=0 / rc_lookahead=60 / rc=2pass / mbtree=1 / bitrate=2107 / ratetol=1.0 / qcomp=0.65 / qpmin=1 / qpmax=63 / qpstep=4 / cplxblur=20.0 / qblur=0.5 / vbv_maxrate=50000 / vbv_bufsize=62500 / nal_hrd=none / ip_ratio=1.40 / aq=2:0.85 / zones=157448,163570,q=35
Language : English
Audio #1
ID : 2
Format : AC-3
Format/Info : Audio Coding 3
Mode extension : CM (complete main)
Codec ID : A_AC3
Duration : 1h 53mn
Bit rate mode : Constant
Bit rate : 192 Kbps
Channel(s) : 2 channels
Channel positions : Front: L R
Sampling rate : 48.0 KHz
Bit depth : 16 bits
Compression mode : Lossy
Stream size : 174 MiB (8%)
Title : MVO | R5
Language : Russian
Audio #2
ID : 3
Format : AC-3
Format/Info : Audio Coding 3
Mode extension : CM (complete main)
Codec ID : A_AC3
Duration : 1h 53mn
Bit rate mode : Constant
Bit rate :
39505b641dda1a1a3b98ef06227dcb88d1679a67Обряд / The Rite (Микаэль Хафстрем, ужасы, триллер, драма, 2011) [BDRip-AVC, Профессиональный (многоголосый закадровый) + Оригинал + Sub] Обряд / The Rite (Микаэль Хафстрем, ужасы, триллер, драма, 2011) [BDRip-AVC, Профессиональный (многоголосый закадровый) + Оригинал + Sub] " />

Аплоадер: Админ, дата: 13-04-2012, 16:06, торрент скачан: 359 раз

Понравилась раздача? Посмотрите эти:
  • Пастырь / Priest (Скотт Чарльз Стюарт, ужасы, фантастика, боевик, триллер, ...
  • Верное дельце / Une pure affaire (Александр Коффре, Боевик, Комедия, Кримин ...
  • Отдел 13 / Diamant 13 (Гайллз Бэхат, Боевик, триллер, криминал, 2009) [BDRi ...
  • Гость / The Caller (Мэттью Паркхилл, триллер, детектив, 2011) [BDRip 720p, ...
  • Убить по расписанию / Ticking Clock (Эрни Барбараш, фантастика, боевик, три ...
  • Шелуха / Husk (Бретт Симмонс, ужасы, триллер, 2011) [BDRip 720p, Профессион ...
  • Аноним / Anonymous (Роланд Эммерих, триллер, драма, 2011) [BDRip-AVC, Профе ...
  • Мартовские иды / The Ides of March (Джордж Клуни / George Clooney, драма, 2 ...
  • Похищенная / A Lonely Place to Die (Джулиан Джилби, триллер, криминал, прик ...
  • Обряд / The Rite (Микаэль Хафстрем, ужасы, триллер, драма, 2011) [BDRip-AVC ...
  • Лица в толпе / Faces in the Crowd (Жюльен Манья, триллер, драма, 2011) [BDR ...
  • Боевой конь / War Horse (Стивен Спилберг, драма, военный, 2011) [BDRip-AVC, ...
  • Поворот не туда 4 / Wrong Turn 4 (Деклан О’Брайэн, ужасы, боевик, детектив, ...
  • Неизвестный / Unknown (Жауме Серра / Jaume Collet-Serra, триллер, драма, де ...
  • Охота за "Красным Октябрём" / The Hunt for "Red October" (Джон МакТирнан, б ...
  • Семь футов / Seven Below (Кевин Каррауэй, Ужасы, триллер, 2012) [BDRip 720p ...
  • Mylene Farmer / Du Temps [2011, Pop, HDTVRip]
  • Mylene Farmer / Bleu Noir [2011, Pop, HDTVRip]
  • Обряд / The Rite (Микаэль Хофстрём, ужасы, триллер, драма, 2011) [HDRip, Пр ...
  • Обряд / The Rite (Микаэль Хофстрём, ужасы, триллер, драма, 2011) [HDRip, Пр ...
  • Информация
    Посетители, находящиеся в группе Гости, не могут оставлять комментарии к данной публикации.