вход на сайт

Имя пользователя :
Пароль :

Восстановление пароля Регистрация
Экстрасенс / The Awakening (Ник Мерфи, ужасы, триллер, 2011) [BDRip-AVC, Дубляж + Оригинал]
Рейтинг:
(голосов: 1)



[img]{THEME}/images/logopost.png[/img]



Экстрасенс / The Awakening

Год выпуска: 2011
Страна: Великобритания
Производство: Studio Canal
Жанр: ужасы, триллер

Режиссёр: Ник Мерфи
В ролях: Ребекка Холл, Доминик Уэст, Имелда Стонтон, Люси Коху, Джон Шрэпнел, Дайана Кент, Ричард Дерден, Элфи Филд, Тилли Восберг, Йен Ханмор

Перевод: Дубляж + Оригинал
Субтитры: Русские

Описание: Действие картины происходит в 1920 году. Ученый-скептик приезжает в загородную школу-интернат, где, по слухам, наблюдается повышенная спектральная активность. Сначала она уверена, что сможет развенчать этот миф, но затем пугающая встреча со сверхъестественным заставляет ее изменить свое мнение…



Премьера (мир): 16 сентября 2011г.
Премьера (РФ): 16 февраля 2012г.

Качество: BDRip-AVC
Продолжительность: 01:46:42

Формат: MKV
Видео кодек: x264
Аудио кодек: AC3
Видео: 1066x454 (2.35:1), 23.976 fps, AVC, ~1567 Kbps, 0.135 bits/pixel
Аудио1: 48 kHz, AC3 Dolby Digital, 3/2 (L,C,R,l,r) + LFE ch, ~384 kbpsDUB
Аудио2: 48 kHz, AC3 Dolby Digital, 3/2 (L,C,R,l,r) + LFE ch, ~384 kbpsENG

MediaInfo ▼TextGeneral
Unique ID : 194699651439742267368357107410368606003 (0x9279C9F47EDAFC41BBE0953D444E2F33)
Complete name : E:DownloadsExtrasens.chopper887Extrasens.chopper887.mkv
Format : Matroska
Format version : Version 2
File size : 1.45 GiB
Duration : 1h 46mn
Overall bit rate : 1 952 Kbps
Movie name : Extrasens.chopper887
Encoded date : UTC 2012-04-02 12:21:28
Writing application : mkvmerge v4.8.0 (I Got The...) сборка от May 24 2011 03:12:58
Writing library : libebml v1.2.0 + libmatroska v1.1.0

Video
ID : 1
Format : AVC
Format/Info : Advanced Video Codec
Format profile : [email protected]
Format settings, CABAC : Yes
Format settings, ReFrames : 10 frames
Codec ID : V_MPEG4/ISO/AVC
Duration : 1h 46mn
Bit rate : 1 567 Kbps
Width : 1 066 pixels
Height : 454 pixels
Display aspect ratio : 2.35:1
Frame rate : 23.976 fps
Color space : YUV
Chroma subsampling : 4:2:0
Bit depth : 8 bits
Scan type : Progressive
Bits/(Pixel*Frame) : 0.135
Stream size : 1.14 GiB (78%)
Title : Extrasens.chopper887
Writing library : x264 core 120 r2164 da19765
Encoding settings : cabac=1 / ref=10 / deblock=1:-2:-1 / analyse=0x3:0x133 / me=umh / subme=11 / psy=1 / psy_rd=1.00:0.10 / mixed_ref=1 / me_range=32 / chroma_me=1 / trellis=2 / 8x8dct=1 / cqm=0 / deadzone=21,11 / fast_pskip=0 / chroma_qp_offset=-3 / threads=12 / sliced_threads=0 / nr=0 / decimate=1 / interlaced=0 / bluray_compat=0 / constrained_intra=0 / bframes=8 / b_pyramid=2 / b_adapt=2 / b_bias=0 / direct=3 / weightb=1 / open_gop=0 / weightp=2 / keyint=240 / keyint_min=23 / scenecut=40 / intra_refresh=0 / rc_lookahead=80 / rc=2pass / mbtree=1 / bitrate=1567 / ratetol=1.0 / qcomp=0.60 / qpmin=10 / qpmax=51 / qpstep=4 / cplxblur=20.0 / qblur=0.5 / ip_ratio=1.40 / aq=1:1.00
Language : English
Default : Yes
Forced : No

Audio
ID : 2
Format : AC-3
Format/Info : Audio Coding 3
Mode extension : CM (complete main)
Codec ID : A_AC3
Duration : 1h 46mn
Bit rate mode : Constant
Bit rate : 384 Kbps
Channel(s) : 6 channels
Channel positions : Front: L C R, Side: L R, LFE
Sampling rate : 48.0 KHz
Bit depth : 16 bits
Compression mode : Lossy
Delay relative to video : 7s 750ms
Stream size : 293 MiB (20%)
Title : DUB
Default : Yes
Forced : No

Text
ID : 3
Format : UTF-8
Codec ID : S_TEXT/UTF8
Codec ID/Info : UTF-8 Plain Text
Title : Rus
Default : Yes
Forced : No

Наши рипы / Набор в РГ/Стол заказов РГ / Стол заказов по РИПам


c1e84b634ef89f350669a437d3dfe2812e1a30d8Экстрасенс / The Awakening (Ник Мерфи, ужасы, триллер, 2011) [BDRip-AVC, Дубляж + Оригинал] Экстрасенс / The Awakening (Ник Мерфи, ужасы, триллер, 2011) [BDRip-AVC, Дубляж + Оригинал] " />

Аплоадер: Админ, дата: 2-04-2012, 19:56, торрент скачан: 359 раз

Понравилась раздача? Посмотрите эти:
  • Экстрасенс / The Awakening (Ник Мерфи, триллер, драма, ужасы, 2011) [HDRip- ...
  • Экстрасенс / The Awakening (Ник Мерфи, Ужасы, триллер, драма, 2011) [BDRip- ...
  • Шелуха / Husk (Бретт Симмонс, ужасы, триллер, 2011) [BDRip 720p, Профессион ...
  • Первый мститель / Captain America: The First Avenger (Джо Джонстон,фантасти ...
  • Аноним / Anonymous (Роланд Эммерих, триллер, драма, 2011) [BDRip-AVC, Профе ...
  • Дом грёз / Dream House (Джим Шеридан, триллер, драма, детектив, 2011) [BDRi ...
  • Хранитель времени / Hugo (Мартин Скорсезе, Драма, 2011) [BDRip-AVC, Професс ...
  • Похищенная / A Lonely Place to Die (Джулиан Джилби, триллер, криминал, прик ...
  • Экстрасенс / The Awakening (Ник Мерфи, Ужасы, 2011) [HDRip - AVC, Дубляж + ...
  • Красные огни / Red Lights (Родриго Кортес, Ужасы, триллер, драма, 2012) [BD ...
  • [3D] Другой мир: Пробуждение / Underworld: Awakening (Манс Марлинд , ужасы, ...
  • Экстрасенс / The Awakening (Ник Мерфи, ужасы, триллер, 2011) [BDRip 720p, Д ...
  • Экстрасенс / The Awakening (Ник Мерфи, ужасы, триллер, 2011) [BDRip 1080p, ...
  • Другой мир: Пробуждение / Underworld: Awakening (Монс Морлинд, Бьёрн Стейн, ...
  • Ворон / The Raven (Джеймс МакТиг, Триллер, детектив, 2012) [BDRip 720p, Дуб ...
  • Хижина в лесу / The Cabin in the Woods (Дрю Годдард, Ужасы, фантастика, три ...
  • Красные огни / Red Lights (Родриго Кортес, Ужасы, триллер, драма, 2012) [BD ...
  • Красные огни / Red Lights (Родриго Кортес, Ужасы, триллер, драма, 2012) [BD ...
  • Цунами 3D / Bait (Кимбл Рендалл, Ужасы, боевик, триллер, 2011) [BDRip 720p ...
  • Mylene Farmer / Du Temps [2011, Pop, HDTVRip]
  • Mylene Farmer / Bleu Noir [2011, Pop, HDTVRip]
  • Экстрасенс / The Awakening (Ник Мерфи, ужасы, триллер, 2011) [HDRip, дублир ...
  • Экстрасенс / The Awakening (Ник Мерфи, ужасы, триллер, 2011) [DVD9, Професс ...
  • Экстрасенс / The Awakening (Ник Мерфи, Ужасы, 2011) [HDRip, Полное Дублиров ...
  • Экстрасенс / The Awakening (Ник Мерфи, ужасы,триллер, 2011) [BDRip, Професс ...
  • Информация
    Посетители, находящиеся в группе Гости, не могут оставлять комментарии к данной публикации.