вход на сайт

Имя пользователя :
Пароль :

Восстановление пароля Регистрация
Обряд / The Rite (Микаэль Хафстрем, ужасы, триллер, драма, 2011) [BDRip-AVC, Профессиональный (многоголосый закадровый) + Авторский (одноголосый закадровый) + Оригинал + Sub]
Рейтинг:
(голосов: 1)



[img]{THEME}/images/logopost.png[/img]



Обряд / The Rite
«You can only defeat it when you believe.»

Год выпуска: 2011
Страна: США Венгрия
Производство: New Line Cinema
Жанр: ужасы, триллер, драма

Режиссёр: Микаэль Хофстрём
В ролях: Энтони Хопкинс, Колин О’Донохью, Алиси Брага, Киаран Хайндс, Тоби Джонс, Рутгер Хауэр, Марта Гастини, Мария Грация Кучинотта, Арианна Веронези, Андре Каллиджари

Перевод: Профессиональный (многоголосый закадровый) | Лицензия + Авторский (одноголосый закадровый) | Ю. Сербин + Оригинал
Субтитры: Русские, украинские, английские

Описание: Студент духовной семинарии, отправляется в Ватикан учиться экзорцизму. При этом он сомневается как в этой противоречивой практике, так и в религии как таковой. Лишь когда он становится учеником легендарного отца Лукаса, который проводил обряд изгнания дьявола тысячи раз, его скептицизм начинает таять.

И вот, когда очередное дело об одержимости дьяволом оказывается не по силам самому отцу Лукасу, молодой семинарист сталкивается лицом к лицу с феноменом, который наука неспособна ни объяснить, ни контролировать. Чтобы выжить в противостоянии с ужасающим злом, ему предстоит понять: во что он действительно верит?



Качество: BDRip-AVC
Продолжительность: 01:53:42 час.

Формат: MKV
Видео кодек: AVC
Аудио кодек: AC3
Видео: 1248x520 (2.40:1), 23.976 fps, AVC ~2800 kbps avg, 0.18 bit/pixel
Аудио: 48.0 KHz, AC3, 2 ch, 192 kbps | Russian (MVO)
Аудио: 48.0 KHz, AC3, 6 ch, 448 kbps | Russian (AVO)
Аудио: 48.0 KHz, AC3, 6 ch, 448 kbps | English

Премьера (мир): 26 января 2011

Mediainfo ▼Complete name : E:...The.Rite.2011.BDRip.x264.AC3.Rus.Eng-E76.mkv
Format : Matroska
File size : 3.09 GiB
Duration : 1h 53mn
Overall bit rate : 3 889 Kbps
Encoded date : UTC 2011-08-02 12:30:15
Writing application : mkvmerge v4.9.1 (Ich will) сборка от Jul 11 2011 23:53:15
Writing library : libebml v1.2.1 + libmatroska v1.1.1
Video
ID : 1
Format : AVC
Format/Info : Advanced Video Codec
Format profile : [email protected]
Format settings, CABAC : Yes
Format settings, ReFrames : 14 frames
Codec ID : V_MPEG4/ISO/AVC
Duration : 1h 53mn
Bit rate : 2 724 Kbps
Width : 1 248 pixels
Height : 520 pixels
Display aspect ratio : 2.40:1
Frame rate : 23.976 fps
Color space : YUV
Chroma subsampling : 4:2:0
Bit depth : 8 bits
Scan type : Progressive
Bits/(Pixel*Frame) : 0.175
Stream size : 2.16 GiB (70%)
Writing library : x264 core 115 r1936 7a9e08d
Encoding settings : cabac=1 / ref=14 / deblock=1:-3:-3 / analyse=0x3:0x113 / me=umh / subme=10 / psy=1 / psy_rd=1.00:0.00 / mixed_ref=1 / me_range=32 / chroma_me=1 / trellis=2 / 8x8dct=1 / cqm=0 / deadzone=21,11 / fast_pskip=1 / chroma_qp_offset=-2 / threads=6 / sliced_threads=0 / nr=0 / decimate=1 / interlaced=0 / bluray_compat=0 / constrained_intra=0 / bframes=14 / b_pyramid=2 / b_adapt=2 / b_bias=0 / direct=1 / weightb=1 / open_gop=0 / weightp=2 / keyint=250 / keyint_min=23 / scenecut=40 / intra_refresh=0 / rc_lookahead=40 / rc=crf / mbtree=0 / crf=18.2 / qcomp=0.60 / qpmin=0 / qpmax=69 / qpstep=4 / vbv_maxrate=50000 / vbv_bufsize=62500 / crf_max=0.0 / nal_hrd=none / ip_ratio=1.40 / pb_ratio=1.20 / aq=1:1.00 / zones=157450,163570,q=35
Language : English
Audio #1
ID : 2
Format : AC-3
Format/Info : Audio Coding 3
Mode extension : CM (complete main)
Codec ID : A_AC3
Duration : 1h 53mn
Bit rate mode : Constant
Bit rate : 192 Kbps
Channel(s) : 2 channels
Channel positions : Front: L R
Sampling rate : 48.0 KHz
Bit depth : 16 bits
Compression mode : Lossy
Stream size : 156 MiB (5%)
Title : MVO R5
Language : Russian
Audio #2
ID : 3
Format : AC-3
Format/Info : Audio Coding 3
Mode extension : CM (complete main)
Codec ID : A_AC3
Duration : 1h 53mn
Bit rate mode : Constant
Bit rate : 448 Kbps
Channel(s) : 6 channels
Channel positions : Front: L C R, Side: L R, LFE
Sampling rate : 48.0 KHz
Bit depth : 16 bits
Compression mode : Lossy
Stream size : 364 MiB (12%)
Title : AVO Serbin
Langu
9f80a3c013dc620b12c2b7414a28d9cd8c52ef8fОбряд / The Rite (Микаэль Хафстрем, ужасы, триллер, драма, 2011) [BDRip-AVC, Профессиональный (многоголосый закадровый) + Авторский (одноголосый закадровый) + Оригинал + Sub] Обряд / The Rite (Микаэль Хафстрем, ужасы, триллер, драма, 2011) [BDRip-AVC, Профессиональный (многоголосый закадровый) + Авторский (одноголосый закадровый) + Оригинал + Sub] " />

Аплоадер: Админ, дата: 30-03-2012, 09:56, торрент скачан: 359 раз

Понравилась раздача? Посмотрите эти:
  • Сыщик / Sleuth (Кеннет Брэна, Триллер, драма, детектив, 2007) [BDRip-AVC, П ...
  • Железная леди / The Iron Lady (Филлида Ллойд, драма, биография, история, 20 ...
  • Отдел 13 / Diamant 13 (Гайллз Бэхат, Боевик, триллер, криминал, 2009) [BDRi ...
  • Водитель / The Driver (Уолтер Хилл, Боевик, триллер, драма, криминал, 1978) ...
  • Убить по расписанию / Ticking Clock (Эрни Барбараш, фантастика, боевик, три ...
  • Шелуха / Husk (Бретт Симмонс, ужасы, триллер, 2011) [BDRip 720p, Профессион ...
  • Цельнометаллическая оболочка / Full Metal Jacket (Стэнли Кубрик, драма, вое ...
  • Мартовские иды / The Ides of March (Джордж Клуни / George Clooney, драма, 2 ...
  • Обряд / The Rite (Микаэль Хафстрем, ужасы, триллер, драма, 2011) [BDRip-AVC ...
  • Апокалипсис сегодня / Apocalypse Now (Френсис Форд Коппола / Francis Ford C ...
  • Пятница 13-е / Friday the 13th (Шон С. Каннингэм, ужасы, триллер, детектив, ...
  • Пятница 13-е Часть 2 / Friday the 13th Part 2 (Стив Майнер, ужасы, триллер, ...
  • Охота за "Красным Октябрём" / The Hunt for "Red October" (Джон МакТирнан, б ...
  • Пятница 13-е Часть III / Friday the 13th Part III (Стив Майнер, ужасы, трил ...
  • Любимые / The Loved Ones (Шон Бирн, ужасы, триллер, драма, 2009) [BDRip-AVC ...
  • Красавчик Джонни / Johnny Handsome (Уолтер Хилл, Триллер, драма, криминал, ...
  • Китайский квартал / Chinatown (Роман Полански, Триллер, драма, криминал, де ...
  • PBS: Природа – Гималаи / PBS: Nature – The Himalayas (Крис Морган, Докумен ...
  • Обряд / The Rite (Микаэль Хофстрём, ужасы, триллер, драма, 2011) [HDRip, Пр ...
  • Обряд / The Rite (Микаэль Хофстрём, ужасы, триллер, драма, 2011) [HDRip, Пр ...
  • Информация
    Посетители, находящиеся в группе Гости, не могут оставлять комментарии к данной публикации.