вход на сайт

Имя пользователя :
Пароль :

Восстановление пароля Регистрация
2016: Конец ночи / Hell (Тим Фельбаум, ужасы, фантастика, триллер, 2011) [DVDRip-AVC, Профессиональный (полное дублирование)+субтитры]
Рейтинг:
(голосов: 1)



[img]{THEME}/images/logopost.png[/img]



2016: Конец ночи / Hell
«Солнце нас сожжёт»

Год выпуска: 2011
Страна: Германия Швейцария
Производство: Caligari Film- und Fernsehproduktions, Claussen Wöbke Putz Filmproduktion, Paramount Pictures
Жанр: ужасы, фантастика, триллер

Режиссёр: Тим Фельбаум
В ролях: Ханна Херцшпрунг, Ларс Айдингер, Стипе Эрчег, Лиза Викари, Йоанн Бланк, Марко Каламандрей, Кристоф Гоглер, Ангела Винклер

Перевод: Дублированный
Субтитры: русские

Описание: Перед тем, как окончательно погаснуть, Солнце увеличилось до невероятных размеров и выжгло всю Землю, превратив ее в непригодную для жизни пустыню.

Среди немногих выживших группа молодых людей, которые отправились в горы в поисках воды и пищи. Но эта мысль посетила не только их и очень скоро ребята оказываются втянуты в безжалостную борьбу за выживание.Дата премьеры (мир): 28 июня 2011
Дата премьеры (РФ): 1 декабря 2011, «Каравелла DDC»
Качество: DVDRip-AVC
Продолжительность: 01:25:41

Формат: MKV
Видео кодек: x.264
Аудио кодек: AC3
Видео: 720 x [email protected]*434(2,35:1), 25.000 fps, x.264, 1890 Кбит/сек, 0.242 bit/pixel
Аудио: 48,0 КГц, AC-3 at, 6 каналов, 384 Кбит/сек
MediaInfo ▼TextОбщее
Полное имя : F:2016.DVDRip.AVC.mkv
Формат : Matroska
Версия формата : Version 2
Размер файла : 1,36 Гбайт
Продолжительность : 1 ч. 25 м.
Общий поток : 2275 Кбит/сек
Дата кодирования : UTC 2012-02-17 13:32:05
Программа кодирования : mkvmerge v5.2.1 (A Far Off Place) built on Jan 2 2012 23:21:10
Библиотека кодирования : libebml v1.2.3 + libmatroska v1.3.0

Видео
Идентификатор : 1
Формат : AVC
Формат/Информация : Advanced Video Codec
Профиль формата : [email protected]
Параметр CABAC формата : Да
Параметр ReFrames формата : 9 кадров
Идентификатор кодека : V_MPEG4/ISO/AVC
Продолжительность : 1 ч. 25 м.
Битрейт : 1890 Кбит/сек
Ширина : 720 пикселей
Высота : 434 пикселя
Соотношение сторон : 2,35:1
Частота кадров : 25,000 кадров/сек
Цветовое пространство : YUV
Субдискретизация насыщенности : 4:2:0
Битовая глубина : 8 бит
Тип развёртки : Прогрессивная
Бит/(Пиксели*Кадры) : 0.242
Размер потока : 1,10 Гбайт (81%)
Библиотека кодирования : x264 core 119 r2106 07efeb4
Настройки программы : cabac=1 / ref=9 / deblock=1:-1:-1 / analyse=0x3:0x133 / me=umh / subme=10 / psy=1 / psy_rd=1.00:0.05 / mixed_ref=1 / me_range=32 / chroma_me=1 / trellis=2 / 8x8dct=1 / cqm=0 / deadzone=21,11 / fast_pskip=0 / chroma_qp_offset=-3 / threads=12 / sliced_threads=0 / nr=0 / decimate=1 / interlaced=0 / bluray_compat=0 / constrained_intra=0 / bframes=8 / b_pyramid=2 / b_adapt=2 / b_bias=0 / direct=3 / weightb=1 / open_gop=0 / weightp=2 / keyint=250 / keyint_min=25 / scenecut=40 / intra_refresh=0 / rc=2pass / mbtree=0 / bitrate=1890 / ratetol=1.0 / qcomp=0.60 / qpmin=0 / qpmax=69 / qpstep=4 / cplxblur=20.0 / qblur=0.5 / ip_ratio=1.40 / pb_ratio=1.30 / aq=1:1.00
Язык : English
Default : Да
Forced : Нет

Аудио
Идентификатор : 2
Формат : AC-3
Формат/Информация : Audio Coding 3
Расширение режима : CM (complete main)
Идентификатор кодека : A_AC3
Продолжительность : 1 ч. 25 м.
Вид битрейта : Постоянный
Битрейт : 384 Кбит/сек
Каналы : 6 каналов
Расположение каналов : Front: L C R, Side: L R, LFE
Частота : 48,0 КГц
Битовая глубина : 16 бит
Метод сжатия : С потерями
Размер потока : 235 Мбайт (17%)
Заголовок : dub
Язык : Russian
Default : Да
Forced : Нет

Текст
Идентификатор : 3
Формат : UTF-8
Идентификатор кодека : S_TEXT/UTF8
Идентификатор кодека/Информация : UTF-8 Plain Text
Язык : Russian
Default : Да
Forced : Нет





c1951ffa085013d4a368c561880fb98b1a88c42e2016: Конец ночи / Hell (Тим Фельбаум, ужасы, фантастика, триллер, 2011) [DVDRip-AVC, Профессиональный (полное дублирование)+субтитры] 2016: Конец ночи / Hell (Тим Фельбаум, ужасы, фантастика, триллер, 2011) [DVDRip-AVC, Профессиональный (полное дублирование)+субтитры] " />

Аплоадер: Админ, дата: 17-02-2012, 21:50, торрент скачан: 359 раз

Понравилась раздача? Посмотрите эти:
  • Война миров Z / World War Z [Theatrical Cut] (Марк Форстер, ужасы, фантасти ...
  • Залив / The Bay (Барри Левинсон, Ужасы, фантастика, триллер, 2012) [BDRip-A ...
  • Мрачные небеса / Dark Skies (Скотт Чарльз Стюарт, ужасы, фантастика, трилле ...
  • Мрачные небеса / Dark Skies (Скотт Чарльз Стюарт, Ужасы, фантастика, трилле ...
  • Мрачные небеса / Dark Skies (Скотт Чарльз Стюарт, ужасы, фантастика, трилле ...
  • Заражение / Contagion (Стивен Содерберг, триллер, драма, 2011) [BDRip-AVC, ...
  • Челюсти 3D / Shark Night 3D ( Дэвид Р. Эллис, ужасы, 2011) [BDRip-AVC, Проф ...
  • Иностранный легион / La cité (Ким Нгуйен / Kim Nguyen, драма, 2010) [DVDRip ...
  • Драйв / Drive (Николас Виндинг Рёфн, боевик, триллер, драма, криминал, 2011 ...
  • Профессионал / Killer Elite (Гэри МакКендри, боевик, 2011) [BDRip-AVC, Проф ...
  • Переростки / The Inbetweeners (Бен Палмер, Комедия, 2011) [BDRip-AVC, Профе ...
  • Люди Икс: Первый класс / X-Men: First Class (Мэттью Вон / Matthew Vaughn, ф ...
  • Руины / The Ruins (Картер Смит, ужасы, триллер, 2008) [BDRip-AVC, Профессио ...
  • Шёлк / Gui si (Чау-Бин Су, ужасы, фантастика, триллер, драма, 2006) [DVDRip ...
  • 2016: Конец ночи / Hell (Тим Фельбаум, ужасы, фантастика, триллер, 2011) [H ...
  • Судный день / The Day (Дуглас Арниокоски, фантастика, триллер, драма, 2011) ...
  • Заражение / Contagion (Стивен Содерберг, Фантастика, 2011) [BDRip 1080p, Пр ...
  • 2016: Конец ночи / Hell (Тим Фельбаум, ужасы, фантастика, триллер, 2011) ...
  • 2016: Конец ночи / Hell (Тим Фельбаум, ужасы, фантастика, триллер, 2011) [B ...
  • Петля времени / Looper (Райан Джонсон, Фантастика, боевик, триллер, кримина ...
  • 2016: Конец ночи / Hell (Тим Фельбаум, ужасы, фантастика, триллер, 2011) [D ...
  • 2016: Конец ночи / Hell (Тим Фельбаум, ужасы, фантастика, триллер, 2011) [D ...
  • 2016: Конец ночи / Hell (Тим Фельбаум / Tim Fehlbaum, ужасы, фантастика, тр ...
  • 2016: Конец ночи / Hell (Тим Фельбаум, ужасы, фантастика, триллер, 2011) [B ...
  • 2016: Конец ночи / Hell (Тим Фельбаум, ужасы, фантастика, триллер, 2011) [H ...
  • Информация
    Посетители, находящиеся в группе Гости, не могут оставлять комментарии к данной публикации.