вход на сайт

Имя пользователя :
Пароль :

Восстановление пароля Регистрация
Паранормальное явление 2 / Paranormal Activity 2 [Theatrical Сut / Театральная версия] (Тод «Кип» Уильямс / Tod Kip Williams,ужасы, триллер, детектив, 2010) [BDRip-AVC , Профессиональный (полное дублированние) + Оригинал]
Рейтинг:
(голосов: 1)



[img]{THEME}/images/logopost.png[/img]



Паранормальное явление 2 / Paranormal Activity 2 [Theatrical Сut / Театральная версия]
«Добро пожаловать в криминальную столицу Америки»

Год выпуска: 2010
Страна: США
Производство: Paramount Pictures
Жанр: ужасы, триллер, детектив

Режиссёр: Тод «Кип» Уильямс / Tod Kip Williams
В ролях: Брайан Боланд, Кэти Фезерстон, Вивис Кортес, Спрэг Грэйден, Молли Эфраим, Мика Слот, Сет Гинсберг, Дэвид Биренд, Уильям Хуан Прието, Джексон Ксения Прието

Перевод: Профессиональный (полное дублированние) [лицензия] + Оригинал
Субтитры: Русские, английские

Описание: После пережитых, как им казалось, серии «взломов» своего жилища, супруги решили установить камеры слежения по всему дому. И только теперь они понимают, что события, которые разворачиваются перед ними, куда более зловещие…



Качество: BDRip-AVC [Исх. Blu-Ray 1080p CEE]
Продолжительность: 01:31:07

Формат: MKV
Видео кодек: x264
Аудио кодек: AC3 Dolby Digital
Видео: 984x552 (16:9), 23,976 fps, ~2 664 kbps avg, 0.205 bit/pixel
Аудио 1: 48 kHz, AC3 Dolby Digital, 3/2 (L,C,R,l,r) + LFE ch, ~384.00 kbps avg - Профессиональный (полное дублированние) [лицензия]
Аудио 2: 48 kHz, AC3 Dolby Digital, 3/2 (L,C,R,l,r) + LFE ch, ~384.00 kbps avg - Оригинал

Дата премьеры (мир): 20 октября 2010
Дата премьеры (мир): 21 октября 2010, «Централ Партнершип»

MediaInfo ▼General
Unique ID : 204006328351554244156464135314373161668 (0x997A308DAAE4BC7B869CEB8CB05D32C4)
Complete name : I:OtherParanormalnoe.javlenie.2.2010.Dub.BDRip.x264_Vaippp.mkv
Format : Matroska
File size : 2.18 GiB
Duration : 1h 31mn
Overall bit rate : 3 430 Kbps
Movie name : Paranormalnoe javlenie (2010) Release by Vaippp
Encoded date : UTC 2011-03-04 04:27:53
Writing application : mkvmerge v4.4.0 (Die Wiederkehr) сборка от Oct 31 2010 21:52:48
Writing library : libebml v1.0.0 + libmatroska v1.0.0
Video
ID : 1
Format : AVC
Format/Info : Advanced Video Codec
Format profile : [email protected]
Format settings, CABAC : Yes
Format settings, ReFrames : 8 frames
Codec ID : V_MPEG4/ISO/AVC
Duration : 1h 31mn
Bit rate : 2 664 Kbps
Width : 984 pixels
Height : 552 pixels
Display aspect ratio : 16:9
Frame rate : 23.976 fps
Color space : YUV
Chroma subsampling : 4:2:0
Bit depth : 8 bits
Scan type : Progressive
Bits/(Pixel*Frame) : 0.205
Stream size : 1.65 GiB (76%)
Title : BDRip by Vaippp
Writing library : x264 core 112 r1867 22bfd31
Encoding settings : cabac=1 / ref=8 / deblock=1:-2:-1 / analyse=0x3:0x133 / me=umh / subme=9 / psy=1 / psy_rd=1.00:0.12 / mixed_ref=1 / me_range=32 / chroma_me=1 / trellis=2 / 8x8dct=1 / cqm=0 / deadzone=21,11 / fast_pskip=0 / chroma_qp_offset=-3 / threads=4 / sliced_threads=0 / nr=0 / decimate=1 / interlaced=0 / constrained_intra=0 / bframes=7 / b_pyramid=2 / b_adapt=2 / b_bias=0 / direct=3 / weightb=1 / open_gop=0 / weightp=2 / keyint=250 / keyint_min=23 / scenecut=40 / intra_refresh=0 / rc_lookahead=40 / rc=2pass / mbtree=0 / bitrate=2664 / ratetol=1.0 / qcomp=0.60 / qpmin=10 / qpmax=51 / qpstep=4 / cplxblur=20.0 / qblur=0.5 / vbv_maxrate=24000 / vbv_bufsize=30000 / nal_hrd=none / ip_ratio=1.40 / pb_ratio=1.30 / aq=1:0.80 / zones=122090,131092,q=35
Language : English
Audio #1
ID : 2
Format : AC-3
Format/Info : Audio Coding 3
Mode extension : CM (complete main)
Codec ID : A_AC3
Duration : 1h 31mn
Bit rate mode : Constant
Bit rate : 384 Kbps
Channel(s) : 6 channels
Channel positions : Front: L C R, Side: L R, LFE
Sampling rate : 48.0 KHz
Bit depth : 16 bits
Compression mode : Lossy
Stream size : 250 MiB (11%)
Title : DUB
Language : Russian
Audio #2
ID : 3
Format : AC-3
Format/Info : Audio Coding 3
Mode extension : CM (complete main)
Codec ID : A_AC3
Duration : 1h 31mn
Bit rate mode : Constant
Bit rate : 384 Kbps
Channel(s) : 6 channels
Channel positions : Front: L C R, Side: L R, LFE
Sampling rate : 48.0 KHz
Bit depth : 16 bits
Compression mode : Lossy
Stream size : 250 MiB (11%)
Title : Original
Language : English
Text #1
ID : 4
Format : UTF-8
Code
20409661920f17451dba07f5dc8e8863e65f5de0Паранормальное явление 2 / Paranormal Activity 2 [Theatrical Сut / Театральная версия] (Тод «Кип» Уильямс / Tod Kip Williams,ужасы, триллер, детектив, 2010) [BDRip-AVC , Профессиональный (полное дублированние) + Оригинал] Паранормальное явление 2 / Paranormal Activity 2 [Theatrical Сut / Театральная версия] (Тод «Кип» Уильямс / Tod Kip Williams,ужасы, триллер, детектив, 2010) [BDRip-AVC , Профессиональный (полное дублированние) + Оригинал] " />

Аплоадер: Админ, дата: 25-01-2012, 22:20, торрент скачан: 359 раз

Понравилась раздача? Посмотрите эти:
  • Пастырь / Priest (Скотт Чарльз Стюарт, ужасы, фантастика, боевик, триллер, ...
  • Иллюзия обмана / Now You See Me [Theatrical Cut] (Луи Летерье / Louis Leter ...
  • Палата / The Ward (Джон Карпентер, Ужасы, триллер, 2010) [BDRip-AVC, Профес ...
  • Железный Кулак [Театральная версия] / The Man with the Iron Fists [Theatric ...
  • Паранормальное явление 4 / Paranormal Activity 4 (Генри Джуст, Эриель Шульм ...
  • Паранормальное явление 2 / Paranormal Activity 2 (Тод «Кип» Уильямс, ужасы, ...
  • Паранормальное явление 2 / Paranormal Activity 2 (Тод «Кип» Уильямс / Tod « ...
  • Паранормальное явление 2 / Paranormal Activity 2 (Тод «Кип» Уильямс, ужасы, ...
  • Артур и война двух миров / Arthur et la guerre des deux mondes (Люк Бессон ...
  • Путешествия Гулливера / Gullivers Travels (Роб Леттерман / Rob Letterman, ф ...
  • Астрал / Insidious (Джеймс Ван / James Wan, ужасы, триллер, 2010) [BDRip-AV ...
  • Город воров / The Town [Театральная версия / Theatrical Cut] (Бен Аффлек / ...
  • Паранормальное явление 3 / Paranormal Activity 3 [Theatrical Cut] (Генри Дж ...
  • Паранормальное явление 3 / Paranormal Activity 3 [Theatrical Cut] (Генри Дж ...
  • Фантомы / Shutter (Масаюки Очиай, ужасы, триллер, детектив, 2008) [BDRip-AV ...
  • Человек-волк [Театральная версия] / The Wolfman [Theatrical cut] (Джо Джонс ...
  • Город воров [Театральная версия] / The Town [Theatrical cut] (Бен Аффлек, т ...
  • Паранормальное явление 4 / Paranormal Activity 4 (Генри Джуст, Эриель Шульм ...
  • Коллекционер 2 / The Collection (Маркус Данстэн, ужасы, боевик, триллер , 2 ...
  • Паранормальное явление 3 / Paranormal Activity 3 [Theatrical Cut] (Генри Дж ...
  • Явление / The Apparition (Тодд Линкольн, Ужасы, триллер, 2012) [BDRip 720p, ...
  • Паранормальное явление 2 / Paranormal Activity 2 (Тод Уильямс, ужасы, трилл ...
  • Паранормальное явление 2 / Paranormal Activity 2 (Тод Кип Уильямс, Ужасы, 2 ...
  • Паранормальное явление 2 / Paranormal Activity 2 (Тод «Кип» Уильямс, ужасы, ...
  • Паранормальное явление 3 / Paranormal Activity 3 [Theatrical Cut] (Генри Дж ...
  • Информация
    Посетители, находящиеся в группе Гости, не могут оставлять комментарии к данной публикации.