вход на сайт

Имя пользователя :
Пароль :

Восстановление пароля Регистрация
Дьявол / Devil (Джон Эрик Даудл / John Erick Dowdle,ужасы, триллер, детектив, 2010) [BDRip-AVC, Профессиональный (полное дублированние) + Оригинал]
Рейтинг:
(голосов: 1)



[img]{THEME}/images/logopost.png[/img]



Дьявол / Devil
«Зло не приходит случайно»

Год выпуска: 2010
Страна: США
Производство: Media Rights Capita
Жанр: ужасы, триллер, детектив

Режиссёр: Джон Эрик Даудл / John Erick Dowdle
В ролях: Крис Мессина, Логан Маршалл-Грин, Дженни О’Хара, Бояна Новакович, Букем Вудбайн, Джеффри Аренд, Джейкоб Варгас, Мэтт Крэвен, Джошуа Пиис, Каролин Давернас

Перевод: Профессиональный (полное дублированние) [лицензия] + Оригинал
Субтитры: Русские, английские

Описание: Несколько людей, оказавшихся в застрявшем лифте, со временем понимают, что среди них присутствует сам дьявол.



Качество: BDRip-AVC [Исх. Blu-ray 1080p]
Продолжительность: 01:20:28

Формат: MKV
Видео кодек: x264
Аудио кодек: AC3 Dolby Digital
Видео: 1280x536 (2,35:1), 23,976 fps, ~1819 kbps avg, 0.111 bit/pixel
Аудио 1: 48 kHz, AC3 Dolby Digital, 3/2 (L,C,R,l,r) + LFE ch, ~448.00 kbps avg - Профессиональный (полное дублированние) [лицензия]
Аудио 2: 48 kHz, AC3 Dolby Digital, 3/2 (L,C,R,l,r) + LFE ch, ~448.00 kbps avg - Оригинал

Дата премьеры (мир): 16 сентября 2010
Дата премьеры (РФ): 23 сентября 2010, «UPI»

MediaInfo ▼Общее
Уникальный идентификатор : 186303303445105470162542091386915814307 (0x8C28B6099F36EF169B716E4340F27BA3)
Полное имя : I:OtherDevil.2010.Dub.BDRip.x264.[Vaippp].mkv
Формат : Matroska
Размер файла : 1,45 Гбайт
Продолжительность : 1 ч. 20 м.
Общий поток : 2587 Кбит/сек
Название фильма : Дьявол / Devil (2010) Release by Vaippp
Дата кодирования : UTC 2011-01-27 22:25:51
Программа кодирования : mkvmerge v4.4.0 (Die Wiederkehr) сборка от Oct 31 2010 21:52:48
Библиотека кодирования : libebml v1.0.0 + libmatroska v1.0.0
Видео
Идентификатор : 1
Формат : AVC
Формат/Информация : Advanced Video Codec
Профиль формата : [email protected]
Параметр CABAC формата : Да
Параметр ReFrames формата : 8 кадры
Идентификатор кодека : V_MPEG4/ISO/AVC
Продолжительность : 1 ч. 20 м.
Битрейт : 1819 Кбит/сек
Ширина : 1280 пикс.
Высота : 536 пикс.
Соотношение сторон : 2,35:1
Частота кадров : 23,976 кадр/сек
Цветовое пространство : YUV
Подвыборка цветности : 4:2:0
Битовая глубина : 8 бит
Тип развёртки : Прогрессивная
Бит/(Пиксели*Кадры) : 0.111
Размер потока : 1018 Мбайт (68%)
Заголовок : BDRip by Vaippp
Библиотека кодирования : x264 core 112 r1867 22bfd31
Настройки программы : cabac=1 / ref=8 / deblock=1:-2:-1 / analyse=0x3:0x113 / me=umh / subme=9 / psy=1 / psy_rd=1.00:0.10 / mixed_ref=1 / me_range=32 / chroma_me=1 / trellis=1 / 8x8dct=1 / cqm=0 / deadzone=21,11 / fast_pskip=0 / chroma_qp_offset=-3 / threads=4 / sliced_threads=0 / nr=0 / decimate=1 / interlaced=0 / constrained_intra=0 / bframes=7 / b_pyramid=2 / b_adapt=2 / b_bias=0 / direct=3 / weightb=1 / open_gop=0 / weightp=2 / keyint=250 / keyint_min=23 / scenecut=40 / intra_refresh=0 / rc_lookahead=60 / rc=2pass / mbtree=1 / bitrate=1819 / ratetol=1.0 / qcomp=0.70 / qpmin=10 / qpmax=51 / qpstep=4 / cplxblur=20.0 / qblur=0.5 / ip_ratio=1.40 / aq=1:1.00
Язык : English
Аудио #1
Идентификатор : 2
Формат : AC-3
Формат/Информация : Audio Coding 3
Расширение режима : CM (complete main)
Идентификатор кодека : A_AC3
Продолжительность : 1 ч. 20 м.
Вид битрейта : Постоянный
Битрейт : 384 Кбит/сек
Канал(ы) : 6 канала(ов)
Расположение каналов : Front: L C R, Side: L R, LFE
Частота : 48,0 КГц
Битовая глубина : 16 бит
Метод сжатия : С потерями
Размер потока : 221 Мбайт (15%)
Заголовок : Дубляж R5
Язык : Russian
Аудио #2
Идентификатор : 3
Формат : AC-3
Формат/Информация : Audio Coding 3
Расширение режима : CM (complete main)
Идентификатор кодека : A_AC3
Продолжительность : 1 ч. 20 м.
Вид битрейта : Постоянный
Битрейт : 384 Кбит/сек
Канал(ы) : 6 канала(ов)
Расположение каналов : Front: L C R, Side: L R, LFE
Частота : 48,0 КГц
Битовая глубина : 16 бит
Метод сжатия : С потерями
Размер потока : 221 Мбайт (15%)
Заголовок : Оригинал
Язык : English
Текст #1
Идентификатор : 4
Формат : UTF-8
Идентификатор кодек
2deaa0662eb5d4c0c1189ecde718cad53c7d243bДьявол / Devil (Джон Эрик Даудл / John Erick Dowdle,ужасы, триллер, детектив, 2010) [BDRip-AVC, Профессиональный (полное дублированние) + Оригинал] Дьявол / Devil (Джон Эрик Даудл / John Erick Dowdle,ужасы, триллер, детектив, 2010) [BDRip-AVC, Профессиональный (полное дублированние) + Оригинал] " />

Аплоадер: Админ, дата: 24-01-2012, 08:34, торрент скачан: 359 раз

Понравилась раздача? Посмотрите эти:
  • Никто не выжил / No One Lives (Рюхэй Китамура, Триллер, ужасы, 2012) [BDRip ...
  • Вампирша / Rise (Себастьян Гутиеррес, ужасы, боевик, триллер, детектив, 200 ...
  • Залив / The Bay (Барри Левинсон, Ужасы, фантастика, триллер, 2012) [BDRip-A ...
  • Фантомы / Shutter (Масаюки Очиай, ужасы, триллер, детектив, 2008) [BDRip-AV ...
  • Перелом / Fracture (Грегори Хоблит, Триллер, драма, криминал, детектив, 200 ...
  • Ворон / The Raven (Джеймс МакТиг, Триллер, детектив, 2012) [BDRip 1080p, Ду ...
  • Призраки / Ghosted (Крэйг Вивейрос, Триллер, драма, 2011) [BDRip-AVC, Профе ...
  • Тело Дженнифер / Jennifers Body (Карин Кусама / Karyn Kusama, Ужасы, комеди ...
  • Дьявол / Devil (Джон Эрик Даудл, ужасы, триллер, детектив, 2010) [BDRip, Ду ...
  • Дьявол / Devil (Джон Эрик Даудл, ужасы, триллер, детектив, 2010) [BDRip-AVC ...
  • Страшно красив / Beastly (Даниел Барнз, фэнтези, драма, мелодрама, 2011) [H ...
  • Начинающие / Beginners (Майк Миллс / Mike Mills, драма, мелодрама, комедия, ...
  • Челюсти 3D / Shark Night 3D ( Дэвид Р. Эллис, ужасы, 2011) [BDRip-AVC, Проф ...
  • Иностранный легион / La cité (Ким Нгуйен / Kim Nguyen, драма, 2010) [DVDRip ...
  • Зеркала 2 / Mirrors 2 (Виктор Гарсия / Víctor García, ужасы, триллер, детек ...
  • Спиди Гонщик / Speed Racer (Энди Вачовски / Andy Wachowski, Лана Вачовски / ...
  • Руины / The Ruins (Картер Смит, ужасы, триллер, 2008) [BDRip-AVC, Профессио ...
  • Скотт Пилигрим против всех / Scott Pilgrim vs. the World (Эдгар Райт, фэнте ...
  • Дьявол / Devil (Джон Е. Даудл, ужасы, триллер, детектив, 2010) [HDRip, Дубл ...
  • Дьявол / Devil (Джон Эрик Даудл / John Erick Dowdle, Триллер / Ужасы / Дете ...
  • Информация
    Посетители, находящиеся в группе Гости, не могут оставлять комментарии к данной публикации.