вход на сайт

Имя пользователя :
Пароль :

Восстановление пароля Регистрация
Челюсти 3D / Shark Night 3D ( Дэвид Р. Эллис, ужасы, 2011) [BDRip-AVC, Профессиональный (полное дублирование)]
Рейтинг:
(голосов: 1)



[img]{THEME}/images/logopost.png[/img]



Челюсти 3D / Shark Night 3D
«Terror runs deep.»

Год выпуска: 2011
Страна: США
Производство: Incentive Filmed Entertainment, Next Films, Sierra Pictures (III)
Жанр: ужасы, триллер

Режиссёр: Дэвид Р. Эллис
В ролях: Сара Пэкстон, Дастин Миллиган, Крис Кармак, Кэтрин МакФи, Донал Лог, Крис Зилка, Алисса Диаз, Джоэль Мур, Джошуа Леонард


Перевод: Профессиональный (полное дублирование)
Субтитры: Отсутствуют

Описание: Сюжет фильма вращается вокруг группы подростков, учащихся колледжа, которые проводят свои выходные на воде в большом озере. Вскоре они обнаруживают, что зубастая опасность скрывается под ними, в непроглядной глубине…


Дата премьеры (мир): 31 августа 2011
Дата премьеры (РФ): 1 сентября 2011, «Централ Партнершип»

Качество: BDRip-AVC
Продолжительность: 01:30:31

Формат: MKV
Видео кодек: x264
Аудио кодек: AC3
Видео: 976x528 (1,85:1), 23.976 fps, x264 ~ 1853 kbps avg, 0.150 bit/pixel
Аудио: 48 kHz, AC3, 6 ch, 448.00 kbps
MediaInfo ▼TextОбщее
Полное имя : Chelyusti.2011Chelyusti.2011.D.BDRip-AVC.mkv
Формат : Matroska
Версия формата : Version 2
Размер файла : 1,46 Гбайт
Продолжительность : 1 ч. 30 м.
Общий поток : 2302 Кбит/сек
Название фильма : Chelyusti.2011.D.BDRip-AVC
Дата кодирования : UTC 2011-12-29 08:08:45
Программа кодирования : mkvmerge v5.2.0 (I cant explain) built on Dec 18 2011 18:12:03
Библиотека кодирования : libebml v1.2.3 + libmatroska v1.3.0
Видео
Идентификатор : 1
Формат : AVC
Формат/Информация : Advanced Video Codec
Профиль формата : [email protected]
Параметр CABAC формата : Да
Параметр ReFrames формата : 11 кадров
Идентификатор кодека : V_MPEG4/ISO/AVC
Продолжительность : 1 ч. 30 м.
Битрейт : 1853 Кбит/сек
Ширина : 976 пикселей
Высота : 528 пикселей
Соотношение сторон : 16:9
Частота кадров : 23,976 кадра/сек
Цветовое пространство : YUV
Субдискретизация насыщенности : 4:2:0
Битовая глубина : 8 бит
Тип развёртки : Прогрессивная
Бит/(Пиксели*Кадры) : 0.150
Размер потока : 1,14 Гбайт (79%)
Заголовок : Источник BDRemux
Библиотека кодирования : x264 core 119 r2106 07efeb4
Настройки программы : cabac=1 / ref=11 / deblock=1:-2:-1 / analyse=0x3:0x113 / me=umh / subme=9 / psy=1 / psy_rd=1.00:0.10 / mixed_ref=1 / me_range=32 / chroma_me=1 / trellis=1 / 8x8dct=1 / cqm=0 / deadzone=21,11 / fast_pskip=0 / chroma_qp_offset=-3 / threads=3 / sliced_threads=0 / nr=0 / decimate=1 / interlaced=0 / bluray_compat=0 / constrained_intra=0 / bframes=10 / b_pyramid=2 / b_adapt=1 / b_bias=0 / direct=3 / weightb=1 / open_gop=0 / weightp=0 / keyint=240 / keyint_min=23 / scenecut=40 / intra_refresh=0 / rc_lookahead=60 / rc=2pass / mbtree=1 / bitrate=1853 / ratetol=1.0 / qcomp=0.60 / qpmin=0 / qpmax=69 / qpstep=4 / cplxblur=20.0 / qblur=0.5 / ip_ratio=1.40 / aq=1:1.00
Язык : English
Default : Да
Forced : Нет
Аудио
Идентификатор : 2
Формат : AC-3
Формат/Информация : Audio Coding 3
Расширение режима : CM (complete main)
Идентификатор кодека : A_AC3
Продолжительность : 1 ч. 30 м.
Вид битрейта : Постоянный
Битрейт : 448 Кбит/сек
Каналы : 6 каналов
Расположение каналов : Front: L C R, Side: L R, LFE
Частота : 48,0 КГц
Битовая глубина : 16 бит
Метод сжатия : С потерями
Размер потока : 290 Мбайт (19%)
Заголовок : Источник BDRemux
Язык : Russian
Default : Да
Forced : Нет
Меню
00:00:00.000 : en:Chapter 1
00:03:59.614 : en:Chapter 2
00:05:44.678 : en:Chapter 3
00:11:19.679 : en:Chapter 4
00:17:24.752 : en:Chapter 5
00:20:47.997 : en:Chapter 6
00:25:39.246 : en:Chapter 7
00:31:02.319 : en:Chapter 8
00:32:52.554 : en:Chapter 9
00:35:49.272 : en:Chapter 10
00:40:43.691 : en:Chapter 11
00:42:32.633 : en:Chapter 12
00:45:50.456 : en:Chapter 13
00:50:54.510 : en:Chapter 14
00:53:21.698 : en:Chapter 15
00:56:55.621 : en:Chapter 16
00:59:36.656 : en:Chapter 17
01:04:31.701 : en:Chapter 18
01:07:31.839 : en:Chapter 19
01:11:39.504 : en:Chapter 20
01:14:33.844 : en:Chapter 21
01:16:56.111 : en:Chapter 22
01:19:18.420 : en:Chapter 23
01:20:39.376 : en:Chapter 24

&n
dc3f57bd66bce6a043abf0b20601178806416133Челюсти 3D / Shark Night 3D ( Дэвид Р. Эллис, ужасы, 2011) [BDRip-AVC, Профессиональный (полное дублирование)] Челюсти 3D / Shark Night 3D ( Дэвид Р. Эллис, ужасы, 2011) [BDRip-AVC, Профессиональный (полное дублирование)] " />

Аплоадер: Админ, дата: 29-12-2011, 17:01, торрент скачан: 359 раз

Понравилась раздача? Посмотрите эти:
  • [Видеоуроки] [BlenderCookie] Blender: Vehicle Modeling Training Series [201 ...
  • Астрал на улице Арлетт / 388 Arletta Avenue (Рэндолл Коул, Триллер, 2011) [ ...
  • (2013) Benga / Chapter II (Dubstep, Bass) [mp3, 320/CBR]
  • Джек Ричер / Jack Reacher (Кристофер МакКуорри, Боевик,триллер, криминал, д ...
  • Убей ради меня / Kill for Me (Майкл Гринспен, триллер, драма, 2013) [DVDRip ...
  • Побег / Flukt (Роар Утхауг, боевик, 2012) [DVDRip-AVC, Любительский (одного ...
  • Челюсти 3D / Shark Night 3D (Дэвид Р. Эллис, ужасы, триллер, 2011) [BDRip-A ...
  • Челюсти 3D / Shark Night 3D (Дэвид Р. Эллис, Ужасы, 2011) [HDRip - AVC, Дуб ...
  • Полководцы / Tau ming chong (Питер Чан, Вэй мэн Йип, боевик, драма, военный ...
  • Тормоз / Brake (Гейб Торрес, триллер, криминал, 2011) [HDRip-AVC, Профессио ...
  • ДухLess (Роман Прыгунов, Драма, 2012) [BDRip-AVC, Не требуется]
  • Облачный атлас / Cloud Atlas (Лана Вачовски, Том Тыквер, Энди Вачовски, фан ...
  • День учителя (Сергей Мокрицкий, драма, 2012) [DVDRip-AVC, Не требуется]
  • [3D] Челюсти 3Д / Shark Night 3D (Дэвид Р. Эллис / David R. Ellis, 2011, Уж ...
  • Рейдер (Всеволод Аравин, драма, криминал, 2011) [BDRip 720p, оригинал]
  • Маугли (Роман Давыдов, мультфильм, приключения, семейный, 1973) [BDRip 720p ...
  • Челюсти 3D / Shark Night 3D (Дэвид Р. Эллис, Ужасы, 2011) [BD-Remux, Дубляж ...
  • Вышибала / Goon (Майкл Даус, комедия, 2011) [BDRip 1080p, Профессиональный ...
  • Собачье сердце (Владимир Бортко, фантастика, драма, комедия, 1988) [BDRip 1 ...
  • Челюсти 3D / Shark Night 3D (Дэвид Р. Эллис, ужасы, триллер, 2011) [BDRip, ...
  • Информация
    Посетители, находящиеся в группе Гости, не могут оставлять комментарии к данной публикации.