вход на сайт

Имя пользователя :
Пароль :

Восстановление пароля Регистрация
11-11-11 / 11-11-11 (Даррен Линн Боусман / Darren Lynn Bousman, ужасы, триллер, 2011) [HDRip-AVC, Профессиональный дублированный]
Рейтинг:
(голосов: 1)



[img]{THEME}/images/logopost.png[/img]



11-11-11| 11-11-11
«Ничего изменить нельзя... теперь всем точно ... !»

Год выпуска: 2011
Страна: США Испания
Производство: Canonigo Films
Жанр: ужасы, триллер

Режиссёр: Даррен Линн Боусман / Darren Lynn Bousman
В ролях: Тимоти Гиббс, Майкл Лэндис, Дэнис Рафтер, Венди Гленн, Луис Солер, Брендан Прайс, Лоло Херреро, Монтсеррат Альковерро, Кельвин Гилмор, Саломе Хименес

Перевод: Профессиональный дублированный [лицензия]
Субтитры: Отсутствуют

Описание: В центре событий известный писатель по имени Джозеф Крон, потерявший в результате несчастного случая жену и ребенка. Чтобы оправиться от трагедии, он едет в Европу, в Испанию, где живет его брат Самюэль и находящийся при смерти отец Ричард. Но судьба продолжает преследовать Джозефа, и все события оказываются мистическим образом связаны с числом 11. Джозеф становится одержим этим числом. Проведя расследование, он выясняет, что 11.11.11 произойдет некое событие, информация о котором зашифрована в молитвенных книгах разных религий мира. Вскоре он понимает, что 11.11.11 — это ПРЕДУПРЕЖДЕНИЕ.Дата премьеры (мир): 1 ноября 2011
Дата премьеры (РФ): 10 ноября 2011, «Люксор»
Качество: HDRip-AVC
Продолжительность: 01:32:56

Формат: MKV
Видео кодек: x264
Аудио кодек: AC3 Dolby Digital
Видео: 1032x430 (2.40:1), 25,000 fps, x264, 1 792 kbps, 0.162 bit/pixel
Аудио: 48 kHz, AC3 Dolby Digital, 3/2 (L,C,R,l,r) + LFE ch, ~448.00 kbps avg

MediaInfo ▼TextGeneral
Unique ID : 171299938488913911796915741405079449739 (0x80DF2B08A693C57EA3E477F66B30B08B)
Complete name : D:Dawnloads11-11-11.chopper887.mkv
Format : Matroska
File size : 1.46 GiB
Duration : 1h 32mn
Overall bit rate : 2 242 Kbps
Movie name : 11-11-11.chopper887
Encoded date : UTC 2011-12-18 09:30:48
Writing application : mkvmerge v4.8.0 (I Got The...) сборка от May 24 2011 03:12:58
Writing library : libebml v1.2.0 + libmatroska v1.1.0
Video
ID : 1
Format : AVC
Format/Info : Advanced Video Codec
Format profile : [email protected]
Format settings, CABAC : Yes
Format settings, ReFrames : 9 frames
Codec ID : V_MPEG4/ISO/AVC
Duration : 1h 32mn
Bit rate : 1 792 Kbps
Width : 1 032 pixels
Height : 430 pixels
Display aspect ratio : 2.40:1
Frame rate : 25.000 fps
Color space : YUV
Chroma subsampling : 4:2:0
Bit depth : 8 bits
Scan type : Progressive
Bits/(Pixel*Frame) : 0.162
Stream size : 1.14 GiB (78%)
Title : 11-11-11.chopper887
Writing library : x264 core 116 r2074 2641b9e
Encoding settings : cabac=1 / ref=9 / deblock=1:-2:-1 / analyse=0x3:0x133 / me=umh / subme=11 / psy=1 / psy_rd=1.00:0.10 / mixed_ref=1 / me_range=32 / chroma_me=1 / trellis=2 / 8x8dct=1 / cqm=0 / deadzone=21,11 / fast_pskip=0 / chroma_qp_offset=-3 / threads=12 / sliced_threads=0 / nr=0 / decimate=1 / interlaced=0 / bluray_compat=0 / constrained_intra=0 / bframes=7 / b_pyramid=2 / b_adapt=2 / b_bias=0 / direct=3 / weightb=1 / open_gop=0 / weightp=2 / keyint=250 / keyint_min=25 / scenecut=40 / intra_refresh=0 / rc_lookahead=80 / rc=2pass / mbtree=1 / bitrate=1792 / ratetol=1.0 / qcomp=0.60 / qpmin=10 / qpmax=51 / qpstep=4 / cplxblur=20.0 / qblur=0.5 / ip_ratio=1.40 / aq=1:1.00
Language : English
Audio
ID : 2
Format : AC-3
Format/Info : Audio Coding 3
Mode extension : CM (complete main)
Codec ID : A_AC3
Duration : 1h 32mn
Bit rate mode : Constant
Bit rate : 448 Kbps
Channel(s) : 6 channels
Channel positions : Front: L C R, Side: L R, LFE
Sampling rate : 48.0 KHz
Bit depth : 16 bits
Compression mode : Lossy
Stream size : 298 MiB (20%)
Title : Dub


d7f5f5a44c32ee38e39cbc7c3b0045515bedf72711-11-11 / 11-11-11 (Даррен Линн Боусман / Darren Lynn Bousman, ужасы, триллер, 2011) [HDRip-AVC, Профессиональный дублированный] 11-11-11 / 11-11-11 (Даррен Линн Боусман / Darren Lynn Bousman, ужасы, триллер, 2011) [HDRip-AVC, Профессиональный дублированный] " />

Аплоадер: Админ, дата: 18-12-2011, 16:47, торрент скачан: 359 раз

Понравилась раздача? Посмотрите эти:
  • Пастырь / Priest (Скотт Чарльз Стюарт, ужасы, фантастика, боевик, триллер, ...
  • Отражение Разбитое зеркало / The Brоken (Шон Эллис , ужасы, фэнтези, трилл ...
  • 11 11 11 / 11 11 11 (Даррен Линн Боусман , ужасы, триллер, 2011) [DVDRip-AV ...
  • Коломбиана / Colombiana (Оливье Мегатон, боевик, триллер, драма, приключени ...
  • Аноним / Anonymous (Роланд Эммерих, триллер, драма, 2011) [BDRip-AVC, Профе ...
  • Профессионал / Killer Elite (Гэри МакКендри , боевик, триллер, криминал, 20 ...
  • Голодный кролик атакует / Seeking Justice (Роджер Дональдсон, боевик, 2011) ...
  • Голодный кролик атакует / Seeking Justice (Роджер Дональдсон / Roger Donald ...
  • Хранитель времени / Hugo (Мартин Скорсезе, Драма, 2011) [BDRip-AVC, Професс ...
  • Экстрасенс / The Awakening (Ник Мерфи, ужасы, триллер, 2011) [BDRip-AVC, Ду ...
  • Курьер / The Courier (Хани Абу-Ассад, боевик, триллер, криминал, 2011) [HDR ...
  • Нокаут / Haywire (Стивен Содерберг, боевик, триллер, 2011) [BDRip-AVC, Дубл ...
  • Зелёный Шершень / The Green Hornet (Мишель Гондри, боевик, триллер, комедия ...
  • Затаившиеся / Hidden (Антуан Томас, ужасы, триллер, 2011) [HDRip-AVC, Дубли ...
  • Оборотень: Зверь среди нас / Werewolf: The Beast Among Us (Луи Морно, ужасы ...
  • Красная шапочка / Red Riding Hood (Кэтрин Хардвик, ужасы, фэнтези, триллер, ...
  • 11-11-11 / 11-11-11 (Даррен Линн Боусман, ужасы, триллер, 2011) [BDRip 720p ...
  • Экстрасенс / The Awakening (Ник Мерфи, ужасы, триллер, 2011) [BDRip 720p, Д ...
  • Mylene Farmer / Du Temps [2011, Pop, HDTVRip]
  • Mylene Farmer / Bleu Noir [2011, Pop, HDTVRip]
  • Пила 3 / Saw III (Даррен Линн Боусман / Darren Lynn Bousman, 2006 г., Ужасы ...
  • 11 11 11 / 11-11-11 (Даррен Линн Боусман, ужасы, триллер, 2011) [HDRip, Про ...
  • Дом грёз / Dream House (Джим Шеридан / Jim Sheridan, триллер, драма, детект ...
  • Хостел 3 / Hostel: Part III (Скотт Спигел / Scott Spiegel, ужасы, триллер, ...
  • 11 11 11 / 11-11-11 (Даррен Линн Боусман / Darren Lynn Bousman, Ужасы, трил ...
  • Информация
    Посетители, находящиеся в группе Гости, не могут оставлять комментарии к данной публикации.