вход на сайт

Имя пользователя :
Пароль :

Восстановление пароля Регистрация
11 11 11 / 11 11 11 (Даррен Линн Боусман , ужасы, триллер, 2011) [DVDRip-AVC, Профессиональный (дублированный) + Оригинал]
Рейтинг:
(голосов: 1)



[img]{THEME}/images/logopost.png[/img]



11 11 11 / 11 11 11

«Ничего изменить нельзя... теперь всем точно ... !»

Год выпуска: 2011
Страна: США Испания
Выпущено: Canonigo Films, Capacity Pictures, Epic Pictures Group
Жанр: ужасы, триллер

Режиссёр: Даррен Линн Боусман / Darren Lynn Bousman
В главных ролях: Тимоти Гиббс, Майкл Лэндис, Дэнис Рафтер, Венди Гленн, Луис Солер, Брендан Прайс, Лоло Херреро, Монтсеррат Альковерро, Кельвин Гилмор, Саломе Хименес

Перевод: Профессиональный (дублированный) + Оригинал
Субтитры: Отсутствуют

О фильме: В центре событий известный писатель по имени Джозеф Крон, потерявший в результате несчастного случая жену и ребенка. Чтобы оправиться от трагедии, он едет в Европу, в Испанию, где живет его брат Самюэль и находящийся при смерти отец Ричард. Но судьба продолжает преследовать Джозефа, и все события оказываются мистическим образом связаны с числом 11. Джозеф становится одержим этим числом. Проведя расследование, он выясняет, что 11.11.11 произойдет некое событие, информация о котором зашифрована в молитвенных книгах разных религий мира. Вскоре он понимает, что 11.11.11 — это ПРЕДУПРЕЖДЕНИЕ.



Качество: DVDRip-AVC
Продолжительность: 01:32:56

Формат: MKV
Видео кодек: XviD build 50
Аудио кодек: AC3 Dolby Digital
Видео: [email protected]:424, 25,000, ~2375 kbps avg, 0.311 bit/pixel
Аудио: 48 kHz, AC3, 3/2 (L,C,R,l,r) + LFE ch, ~448.00 kbps avg |DUB|
Аудио: 48 kHz, AC3, 3/2 (L,C,R,l,r) + LFE ch, ~448.00 kbps avg |Original|

Дата премьеры (мир): 10 ноября 2011
Дата премьеры (РФ): 10 ноября 2011, «Люксор»


MediaInfo ▼Общее
Уникальный идентификатор : 252313814720063862006807966293056897251 (0xBDD1DF847A358E6CB8845D223A3D40E3)
Полное имя : C:UsersNuschrokDesktop1111111.11.11.2011..DVDRip-AVC_[rutreker.org].mkv
Формат : Matroska
Версия формата : Version 2
Размер файла : 2,12 Гбайт
Продолжительность : 1 ч. 32 м.
Общий поток : 3272 Кбит/сек
Дата кодирования : UTC 2011-11-20 14:19:07
Программа кодирования : mkvmerge v4.9.1 (Ich will) сборка от Aug 10 2011 09:31:20
Библиотека кодирования : libebml v1.2.1 + libmatroska v1.2.0
Видео
Идентификатор : 1
Формат : AVC
Формат/Информация : Advanced Video Codec
Профиль формата : [email protected]
Параметр CABAC формата : Да
Параметр ReFrames формата : 9 кадров
Идентификатор кодека : V_MPEG4/ISO/AVC
Продолжительность : 1 ч. 32 м.
Битрейт : 2375 Кбит/сек
Ширина : 720 пикс.
Высота : 424 пикс.
Соотношение сторон : 2,40:1
Соотношение сторон в оригинале : 2,40:1
Частота кадров : 25,000 кадр/сек
Цветовое пространство : YUV
Подвыборка цветности : 4:2:0
Битовая глубина : 8 бит
Тип развёртки : Прогрессивная
Бит/(Пиксели*Кадры) : 0.311
Размер потока : 1,50 Гбайт (71%)
Библиотека кодирования : x264 core 116 r2074 2641b9e
Настройки программы : cabac=1 / ref=9 / deblock=1:-2:-1 / analyse=0x3:0x113 / me=umh / subme=10 / psy=1 / psy_rd=1.00:0.20 / mixed_ref=1 / me_range=32 / chroma_me=1 / trellis=2 / 8x8dct=1 / cqm=0 / deadzone=21,11 / fast_pskip=0 / chroma_qp_offset=-3 / threads=12 / sliced_threads=0 / nr=0 / decimate=0 / interlaced=0 / bluray_compat=0 / constrained_intra=0 / bframes=7 / b_pyramid=2 / b_adapt=2 / b_bias=0 / direct=3 / weightb=1 / open_gop=0 / weightp=2 / keyint=250 / keyint_min=25 / scenecut=40 / intra_refresh=0 / rc=2pass / mbtree=0 / bitrate=2375 / ratetol=1.0 / qcomp=0.60 / qpmin=0 / qpmax=69 / qpstep=4 / cplxblur=20.0 / qblur=0.5 / ip_ratio=1.40 / pb_ratio=1.30 / aq=1:1.00
Аудио #1
Идентификатор : 2
Формат : AC-3
Формат/Информация : Audio Coding 3
Расширение режима : CM (complete main)
Идентификатор кодека : A_AC3
Продолжительность : 1 ч. 32 м.
Вид битрейта : Постоянный
Битрейт : 448 Кбит/сек
Каналы : 6 каналов
Расположение каналов : Front: L C R, Side: L R, LFE
Частота : 48,0 КГц
Битовая глубина : 16 бит
Метод сжатия : С потерями
Размер потока : 298 Мбайт (14%)
Язык : Russian
Аудио #2
Идентификатор : 3
Формат : AC-3
Формат/Информация : Audio Coding 3
Расширение режима : CM (complete main)
36d9b47f35fcb63d41910d2d65b0bf04cf33b1b711 11 11 / 11 11 11 (Даррен Линн Боусман , ужасы, триллер, 2011) [DVDRip-AVC, Профессиональный (дублированный) + Оригинал] 11 11 11 / 11 11 11 (Даррен Линн Боусман , ужасы, триллер, 2011) [DVDRip-AVC, Профессиональный (дублированный) + Оригинал] " />

Аплоадер: Админ, дата: 21-11-2011, 02:01, торрент скачан: 359 раз

Понравилась раздача? Посмотрите эти:
  • Заклятие / The Conjuring (Джеймс Ван, ужасы, триллер, 2013) [BDRip 720р, Ду ...
  • Заклятие / The Conjuring (Джеймс Ван, ужасы, триллер, 2013) [BDRip 1080p, Д ...
  • Незнакомец внутри / The Stranger Within (Adam Neutzsky-Wulff, триллер, 2013 ...
  • Мрачные небеса / Dark Skies (Скотт Чарльз Стюарт, ужасы, фантастика, трилле ...
  • Призраки / Ghosted (Крэйг Вивейрос, Триллер, драма, 2011) [BDRip-AVC, Профе ...
  • Дьявол / Devil (Джон Эрик Даудл, ужасы, триллер, детектив, 2010) [BDRip-AVC ...
  • Страшно красив / Beastly (Даниел Барнз, фэнтези, драма, мелодрама, 2011) [H ...
  • Главное - не бояться! / A Little Bit of Heaven (Николь Кэссел / Nicole Kass ...
  • Соломенные псы / Straw Dogs (Род Лури, Триллер, драма, криминал , 2011) [BD ...
  • 11-11-11 / 11-11-11 (Даррен Линн Боусман / Darren Lynn Bousman, ужасы, тр ...
  • Заражение / Contagion (Стивен Содерберг, триллер, драма, 2011) [BDRip-AVC, ...
  • Погоня / Abduction (Джон Синглтон, боевик, триллер, драма, детектив, 2011) ...
  • Челюсти 3D / Shark Night 3D ( Дэвид Р. Эллис, ужасы, 2011) [BDRip-AVC, Проф ...
  • Иностранный легион / La cité (Ким Нгуйен / Kim Nguyen, драма, 2010) [DVDRip ...
  • Резня /Carnage (Роман Полански, драма, комедия, 2011) [DVDRip-AVC, Дублиров ...
  • Дьявол / Devil (Джон Эрик Даудл / John Erick Dowdle,ужасы, триллер, детекти ...
  • 2016: Конец ночи / Hell (Тим Фельбаум, ужасы, фантастика, триллер, 2011) [D ...
  • Переростки / The Inbetweeners (Бен Палмер, Комедия, 2011) [BDRip-AVC, Профе ...
  • Шёлк / Gui si (Чау-Бин Су, ужасы, фантастика, триллер, драма, 2006) [DVDRip ...
  • Проект X: Дорвались / Project X (Нима Нуризаде, комедия, 2012) [BDRip - AVC ...
  • 11-11-11 / 11-11-11 (Даррен Линн Боусман, ужасы, триллер, 2011) [BDRip 720p ...
  • История игрушек: Гавайские каникулы / Toy Story: Hawaiian Vacation (Гари ...
  • Заражение / Contagion (Стивен Содерберг, Фантастика, 2011) [BDRip 1080p, Пр ...
  • 11 11 11 / 11-11-11 (Даррен Линн Боусман, ужасы, триллер, 2011) [HDRip, Про ...
  • 11 11 11 / 11-11-11 (Даррен Линн Боусман / Darren Lynn Bousman, Ужасы, трил ...
  • Информация
    Посетители, находящиеся в группе Гости, не могут оставлять комментарии к данной публикации.