вход на сайт

Имя пользователя :
Пароль :

Восстановление пароля Регистрация
Забери мою душу / My Soul to Take (Уэс Крэйвен, ужасы, триллер, 2010) [HDRip, Профессиональный (полное дублирование)] by Torrent Club
Рейтинг:
(голосов: 1)



[img]{THEME}/images/logopost.png[/img]



Забери мою душу / My Soul to Take

Слоган "Что, если его душа в одном из нас?"

Год выпуска: 2010
Страна: США
Производство: Rogue / Relativity Media / Corvus Corax
Жанр: ужасы, триллер

Режиссёр: Уэс Крэйвен
В ролях: Макс Тириот, Джон Магаро, Дэнзел Уитакер, Ник Лашэвэй, Эмили Миде, Фрэнк Грилло, Зена Грэй, Джессика Хехт, Деннис Буцикарис, Шарика Эппс, Кристиан Николае, Бет Мари Джэнсен, Мелоди Уайсс, Кейтлин Стоу, Кортни Стоу, Ричард Рутковски, Крис Плэйс, Ханна Ходсон, Терри Дуглас, Роберт Клотуорти

Перевод: Дублированный
Субтитры: отсутствуют

Описание:
Сонный городишко Ривертон ожидает исполнения пророчества: серийный убийца должен вернуться на место своих преступлений, чтобы убить семерых детей, родившихся в день его смерти. Но действительно ли маньяк мертв? Или зло переселилось в тело неосторожного подростка, которому теперь предстоит завершить страшную миссию?



Доп. информация:

Релиз от :
Знаете ли вы, что ▼* Рабочее название фильма - «25/8».
* Название фильма было взято из детской молитвы: Now I lay me down to sleep, I pray the Lord my soul to keep. If I should die before I wake, I pray the Lord my soul to take
* Изначально на роль Бага Хеллермана выбрали Генри Ли Хоппера. Однако позже выяснилось, что актер болен мононуклеозом и нуждается в лечении. Как только стало понятно, что из-за этого придется перенести съемки на неопределенный срок, Уэс Крейвен утвердил на роль Макса Тириота, дабы не нарушать плана.
* У сценария к фильму существует две концовки, однако в планах режиссера не было снимать альтернативную версию концовки.
Рейтинг MPAA: ▼Рейтинг R - Детям до 17 лет обязательно присутствие родителей

Премьера: ▼премьера (мир) 7 октября 2010, ...
премьера (РФ) 6 октября 2010, «Парадиз» 3D
релиз на DVD 2 декабря 2010, «CP-Digital»

Тех. данные:
Качество: HDRip
Продолжительность: 01:47:17 час.

Формат: AVI
Видео кодек: XviD
Аудио кодек: АС3
Видео: 720x304 (2.37:1), 23.976 fps, XviD build 50 ~1555 kbps avg, 0.30 bit/pixel
Аудио: 48 kHz, AC3 Dolby Digital, 3/2 (L,C,R,l,r) + LFE ch, ~256.00 kbps avg
"MediaInfo" ▼TextОбщее
Полное имя : C:UsersШапагатDownloadsaberi.moyu.dushu.2010.hdrip.by.TORRENT-CLUB.avi
Формат : AVI
Формат/Информация : Audio Video Interleave
Размер файла : 1,36 Гбайт
Продолжительность : 1 ч. 47 м.
Общий поток : 1821 Кбит/сек
Режиссёр : Rip by Torrent Club / Simple_guy
Программа кодирования : VirtualDubMod 1.5.10.3 | www.virtualdub-fr.org || (build 2550/release)

Видео
Идентификатор : 0
Формат : MPEG-4 Visual
Профиль формата : Advanced [email protected]
Параметр BVOP формата : 2
Параметр QPel формата : Нет
Параметр GMC формата : Без точки перехода
Параметр матрицы формата : Default (H.263)
Идентификатор кодека : XVID
Идентификатор кодека/Подсказка : XviD
Продолжительность : 1 ч. 47 м.
Битрейт : 1556 Кбит/сек
Ширина : 720 пикс.
Высота : 304 пикс.
Соотношение сторон : 2,35:1
Частота кадров : 23,976 кадр/сек
Цветовое пространство : YUV
Подвыборка цветности : 4:2:0
Битовая глубина : 8 бит
Тип развёртки : Прогрессивная
Метод сжатия : С потерями
Бит/(Пиксели*Кадры) : 0.296
Размер потока : 1,17 Гбайт (85%)
Библиотека кодирования : XviD 1.2.1 (UTC 2008-12-04)

Аудио
Идентификатор : 1
Формат : AC-3
Формат/Информация : Audio Coding 3
Расширение режима : CM (complete main)
Идентификатор кодека : 2000
Продолжительность : 1 ч. 47 м.
Вид битрейта : Постоянный
Битрейт : 256 Кбит/сек
Каналы : 6 каналов
Расположение каналов : Front: L C R, Side: L R, LFE
Частота : 48,0 КГц
Битовая глубина : 16 бит
Метод сжатия : С потерями
Размер потока : 196 Мбайт (14%)
Выравнивание : Разделение по промежуткам
Продолжительность промежутка : 42 мс. (1,00 видеокадр)
Время предзагрузки промежутка : 500 ms



Раздача группы: Наши раздачи
Набор в группу




d49271d4a4997647580e4839544b894a2b5b44b3Забери мою душу / My Soul to Take (Уэс Крэйвен, ужасы, триллер, 2010) [HDRip, Профессиональный (полное дублирование)] by Torrent Club Забери мою душу / My Soul to Take (Уэс Крэйвен, ужасы, триллер, 2010) [HDRip, Профессиональный (полное дублирование)] by Torrent Club " />

Аплоадер: Админ, дата: 13-07-2011, 01:42, торрент скачан: 359 раз

Понравилась раздача? Посмотрите эти:
  • Бойфренд из будущего / About Time (Ричард Кёртис, Фантастика, драма, комеди ...
  • Одноклассники 2 / Grown Ups 2 (Деннис Дуган, Комедия, 2013) [BDRip, Професс ...
  • Мачете убивает / Machete Kills (Роберт Родригес, боевик, комедия, 2013) [HD ...
  • Забери мою душу / My Soul to Take (Уэс Крэйвен / ужасы, триллер / 2010) [HD ...
  • Плохой хороший полицейский / Bon Cop, Bad Cop (Эрик Кануэль, боевик, трилле ...
  • Глушь / Resurrection County (Матт Зеттел, Ужасы,триллер, 2008) [DVDRip, Про ...
  • Жил-был тигр / Ek Tha Tiger (Кабир Кхан, боевик, триллер , 2012) [ HDRip, ...
  • Легенда о МорДу / The Legend of MorDu (Брайан Ларсен, Короткометражный, ска ...
  • Забери мою душу 3D / My Soul to Take 3D(Уэс Крэйвен,ужасы, триллер,2010)[DV ...
  • Бог любви / God of Love (Люк Мэзени, Короткометражка, фэнтези, комедия, мел ...
  • Боец из трущоб / Gutter King (Кейт Алан Моррис / Keith Alan Morris, боевик, ...
  • Кошмар / Nightmare / Qing Yan (Херман Яу, ужасы, триллер, 2012) [DVDRip, Лю ...
  • Забери мою душу 3D / My Soul to Take 3D(Уэс Крэйвен,ужасы, триллер,2010)[DV ...
  • Забери мою душу 2D / My Soul to Take 2D (Уэс Крэйвен / Wes Craven, ужасы, т ...
  • Дикая штучка / Wild Target (Джонатан Линн, боевик, драма, комедия, криминал ...
  • Привет, Джули! / Flipped (Роб Райнер, драма, мелодрама, комедия , 2010) [HD ...
  • Ловчий смерти / Death Hunter (Дастин Рикерт, Ужасы, 2010) [DVDRip, Професси ...
  • Жизнь за брата / The Heavy (Маркус Уоррен, триллер, 2010) [DVDRip, Професси ...
  • Челюсти 3D / Shark Night 3D (Дэвид Р. Эллис, ужасы, триллер, 2011) [HDRip, ...
  • [3D] Забери мою душу 3D / My Soul to Take 3D(Уэс Крэйвен,ужасы, триллер, де ...
  • Нет мужчин - нет проблем / Without Men (Габриела Тальявини, Комедия, 2011) ...
  • Гениальный папа / Father of Invention (Трент Купер, Драма, комедия, 2010) [ ...
  • Жизнь за гранью / After.Life (Агнешка Войтович-Восло, Ужасы, триллер, драм ...
  • Глаз шторма / The Eye of the Storm (Фред Скеписи, Драма, 2011) [HDRip, Проф ...
  • Сдохни, Джон Такер / John Tucker Must Die (Бетти Томас, мелодрама, комедия, ...
  • Информация
    Посетители, находящиеся в группе Гости, не могут оставлять комментарии к данной публикации.