вход на сайт

Имя пользователя :
Пароль :

Восстановление пароля Регистрация
Синистер / Sinister (Скотт Дерриксон, ужасы, детектив, 2012) [BDRip-AVC, Дубляж, Оригинал (английский), Sub]
Рейтинг:
(голосов: 1)



[img]{THEME}/images/logopost.png[/img]



Синистер / Sinister
«Увидевший его не спасётся.»


Год выпуска: 2012
Страна: США
Производство: Alliance Films, Automatik Entertainment, Blumhouse Productions
Жанр: ужасы, детектив

Режиссёр: Скотт Дерриксон
В ролях: Итан Хоук, Джульет Райлэнс, Фред Долтон Томпсон, Джеймс Рэнсон, Майкл Холл Д’Аддарио, Клер Фоли, Роб Райли, Тэвис Смайли, Джанет Заппала, Виктория Ли

Перевод: Дубляж, Оригинал (английский)
Субтитры: Русские (Full), английские (Full, SDH, SDH цветные) спасибо [subsvin2]

Описание: Вместе с семьей автор детективов поселяется в небольшом городке, в доме, где почти год назад развернулась леденящая душу трагедия — были убиты все жильцы. Писатель случайно находит видеозаписи, которые являются ключом к тайне преступления. Но ничто не дается даром: в доме начинают происходить жуткие вещи и теперь под угрозой жизнь его близких. Они столкнулись с чем-то, от чего нет спасения…



Качество: BDRip-AVC | Сэмпл
Продолжительность: 01:49:45

Формат: MKV
Видео кодек: x264
Аудио кодек: AC3
Видео: 1056x440 (2,40:1), 23.976 fps, x264 ~1 956 kbps avg, 0.176 bit/pixel
Аудио#1: 48 kHz, AC3 Dolby Digital, 3/2 (L,C,R,l,r) + LFE ch, ~448.00 kbps avg - (Дубляж)
Аудио#2: 48 kHz, AC3 Dolby Digital, 3/2 (L,C,R,l,r) + LFE ch, ~448.00 kbps avg - (Оригинал)

Премьера (мир): 11 марта 2012
Премьера (РФ): 11 октября 2012, «Top Film Distribution»

MediaInfo ▼
General
Unique ID : 198341134265527346777462906541945269313 (0x95371CEB821D37AFACD8674C269E2C41)
Complete name : Sinister.2012.D.BDRip.x264.potroks.mkv
Format : Matroska
Format version : Version 2
File size : 2.19 GiB
Duration : 1h 49mn
Overall bit rate : 2 851 Kbps
Movie name : -=POTROKS=-
Encoded date : UTC 2013-01-30 13:39:57
Writing application : mkvmerge v5.7.0 (The Whirlwind) built on Jul 8 2012 20:08:51
Writing library : libebml v1.2.3 + libmatroska v1.3.0

Video
ID : 1
Format : AVC
Format/Info : Advanced Video Codec
Format profile : [email protected]
Format settings, CABAC : Yes
Format settings, ReFrames : 10 frames
Codec ID : V_MPEG4/ISO/AVC
Duration : 1h 49mn
Bit rate : 1 956 Kbps
Width : 1 056 pixels
Height : 440 pixels
Display aspect ratio : 2.40:1
Frame rate mode : Constant
Frame rate : 23.976 fps
Color space : YUV
Chroma subsampling : 4:2:0
Bit depth : 8 bits
Scan type : Progressive
Bits/(Pixel*Frame) : 0.176
Stream size : 1.46 GiB (67%)
Title : Sinister
Writing library : x264 core 125 r2208 d9d2288
Encoding settings : cabac=1 / ref=10 / deblock=1:-2:-1 / analyse=0x3:0x133 / me=umh / subme=11 / psy=1 / psy_rd=1.07:0.03 / mixed_ref=1 / me_range=32 / chroma_me=1 / trellis=2 / 8x8dct=1 / cqm=0 / deadzone=21,11 / fast_pskip=0 / chroma_qp_offset=-3 / threads=6 / lookahead_threads=1 / sliced_threads=0 / nr=0 / decimate=1 / interlaced=0 / bluray_compat=0 / constrained_intra=0 / bframes=11 / b_pyramid=2 / b_adapt=2 / b_bias=0 / direct=3 / weightb=1 / open_gop=0 / weightp=2 / keyint=240 / keyint_min=23 / scenecut=40 / intra_refresh=0 / rc_lookahead=150 / rc=2pass / mbtree=1 / bitrate=1956 / ratetol=1.0 / qcomp=0.70 / qpmin=0 / qpmax=69 / qpstep=4 / cplxblur=20.0 / qblur=0.5 / vbv_maxrate=20000 / vbv_bufsize=20000 / nal_hrd=none / ip_ratio=1.35 / aq=1:0.80
Language : English
Default : Yes
Forced : No

Audio #1
ID : 2
Format : AC-3
Format/Info : Audio Coding 3
Mode extension : CM (complete main)
Format settings, Endianness : Big
Codec ID : A_AC3
Duration : 1h 49mn
Bit rate mode : Constant
Bit rate : 448 Kbps
Channel(s) : 6 channels
Channel positions : Front: L C R, Side: L R, LFE
Sampling rate : 48.0 KHz
Bit depth : 16 bits
Compression mode : Lossy
Delay relative to video : 8s 0ms
Stream size : 352 MiB (16%)
Title : Dub | DD 5.1 @ 448 kbps
Language : Russian
Default : Yes
Forced : Yes

Audio #2
ID : 3
Format : AC-3
Format/Info : Audio Coding 3
Mode extension : CM (complete main)
Format settings, Endianness : Big
Codec ID : A_AC3
Duratio
44f511b9114da03c47c155cbc85be60fc5211f5bСинистер / Sinister (Скотт Дерриксон, ужасы, детектив, 2012) [BDRip-AVC, Дубляж, Оригинал (английский), Sub] Синистер / Sinister (Скотт Дерриксон, ужасы, детектив, 2012) [BDRip-AVC, Дубляж, Оригинал (английский), Sub] " />

Аплоадер: Админ, дата: 30-01-2013, 23:19, торрент скачан: 359 раз

Понравилась раздача? Посмотрите эти:
  • Пастырь / Priest (Скотт Чарльз Стюарт, ужасы, фантастика, боевик, триллер, ...
  • Мрачные небеса / Dark Skies (Скотт Чарльз Стюарт, Ужасы, фантастика, трилле ...
  • Синистер / Sinister (Скотт Дерриксон, ужасы, триллер, детектив, 2012) [HDRi ...
  • Синистер / Sinister (Скотт Дерриксон, ужасы, детектив, 2012) [HDRip, Дубляж ...
  • Синистер / Sinister (Скотт Дерриксон, ужасы, детектив, 2012) [BDRip-AVC, Ду ...
  • 007: Координаты «Скайфолл» / Skyfall (Сэм Мендес, Боевик, триллер, криминал ...
  • Сайлент Хилл 2 / Silent Hill: Revelation 3D (Майкл Дж. Бассетт, ужасы, трил ...
  • Синистер / Sinister (Скотт Дерриксон, Ужасы, триллер, детектив, 2012) [BDRi ...
  • Синистер / Sinister (Скотт Дерриксон, ужасы, детектив, 2012) [DVDRip-AVC, П ...
  • Патруль / End of Watch (Дэвид Эйр, Триллер, драма, криминал, 2012) [BDRip-A ...
  • Шаг вперед 4 / Step Up Revolution (Скотт Спир, Драма, мелодрама, музыка, 20 ...
  • Универсальный солдат 4 / Universal Soldier: Day of Reckoning (Джон Хайамс, ...
  • Коллекционер 2 / The Collection (Маркус Данстэн, ужасы, боевик, триллер , 2 ...
  • Синистер / Sinister (Скотт Дерриксон, ужасы, детектив, 2012) [HDRip, Дубляж ...
  • Синистер / Sinister (Скотт Дерриксон, ужасы, детектив, 2012) [DVD5, Професс ...
  • Ворон / The Raven (Джеймс МакТиг, Триллер, детектив, 2012) [BDRip 720p, Дуб ...
  • Красные огни / Red Lights (Родриго Кортес, Ужасы, триллер, драма, 2012) [BD ...
  • Патруль / End of Watch (Дэвид Эйр, Триллер, драма, криминал, 2012) [BDRip 7 ...
  • Явление / The Apparition (Тодд Линкольн, Ужасы, триллер, 2012) [BDRip 720p, ...
  • Синистер / Sinister (Скотт Дерриксон, Ужасы, детектив, 2012) [BDRip 720p, П ...
  • Синистер / Sinister(Скотт Дерриксон,ужас, детектив,2012) [DVDRip, Дублирова ...
  • Синистер / Sinister (Скотт Дерриксон, Ужасы, Триллер, Криминал, 2012) [480x ...
  • Синистер / Sinister (Скотт Дерриксон, Ужасы, Триллер, Криминал, 2012) [320x ...
  • [EN] Синистер / Sinister (Скотт Дерриксон, ужасы, детектив, 2012) [DVDRip, ...
  • Синистер / Sinister (Скотт Дерриксон, ужасы, детектив, 2012) [DVDRip, Профе ...
  • Информация
    Посетители, находящиеся в группе Гости, не могут оставлять комментарии к данной публикации.