вход на сайт

Имя пользователя :
Пароль :

Восстановление пароля Регистрация
Бессмертные души / Soul Survivors (Стивен Карпентер, ужасы, триллер, драма, детектив, 2001) [DVDRip-AVC, Профессиональный (многоголосый, закадровый)]
Рейтинг:
(голосов: 1)



[img]{THEME}/images/logopost.png[/img]



Бессмертные души / Soul Survivors
«The World of the Dead and the World of the Living... are About to Collide.»

Год выпуска: 2001
Страна: США
Производство: Lost Soul Productions, Original Film
Жанр: ужасы, триллер, драма, детектив

Режиссёр: Стивен Карпентер
В ролях: Мелисса Сэйджмиллер, Уэс Бентли, Элиза Душку, Анджела Фезерстоун, Кейси Аффлек, Люк Уилсон

Перевод: Профессиональный (многоголосый, закадровый)
Субтитры: Oтсутствуют

Описание: После страшной автокатастрофы молодую девушку мучают кошмары. Ей кажется, что друг, с которым она была в машине, погиб. Но миры живых и мертвых иногда пересекаются.



Качество: DVDRip-AVC | Сэмпл
Продолжительность: 01:25:36

Формат: MKV
Видео кодек: H.264
Аудио кодек: AC3
Видео: 720x480 @ 853 x 480 (16:9), 23.976 fps, H.264 ~1443 kbps avg, 0.174 bit/pixel
Аудио: 48 kHz, Audio Coding 3, 6 ch, ~384.00 kbps avg

Дата премьеры (мир): 6 сентября 2001
Дата премьеры (РФ): 20 сентября 2001, «Союз»

"MediaInfo" ▼Format : Matroska
Format version : Version 1
File size : 1.09 GiB
Duration : 1h 25mn
Overall bit rate : 1 830 Kbps
Encoded date : UTC 2009-03-04 15:35:21
Writing application : mkvmerge v2.2.0 (Turn It On Again) built on Mar 4 2008 12:58:26
Writing library : libebml v0.7.7 + libmatroska v0.8.1

Video
ID : 1
Format : AVC
Format/Info : Advanced Video Codec
Format profile : [email protected]
Format settings, CABAC : Yes
Format settings, ReFrames : 8 frames
Codec ID : V_MPEG4/ISO/AVC
Duration : 1h 25mn
Bit rate : 1 443 Kbps
Width : 720 pixels
Height : 480 pixels
Display aspect ratio : 16:9
Original display aspect ratio : 3:2
Frame rate : 23.976 fps
Standard : NTSC
Color space : YUV
Chroma subsampling : 4:2:0
Bit depth : 8 bits
Scan type : Progressive
Bits/(Pixel*Frame) : 0.174
Stream size : 863 MiB (77%)
Writing library : x264 core 66 r1115M 11863ac
Encoding settings : cabac=1 / ref=8 / deblock=1:-1:-1 / analyse=0x3:0x113 / me=umh / subme=8 / psy_rd=1.0:0.0 / mixed_ref=1 / me_range=16 / chroma_me=1 / trellis=2 / 8x8dct=1 / cqm=0 / deadzone=21,11 / chroma_qp_offset=-2 / threads=6 / nr=0 / decimate=1 / mbaff=0 / bframes=3 / b_pyramid=0 / b_adapt=2 / b_bias=0 / direct=3 / wpredb=1 / keyint=250 / keyint_min=25 / scenecut=40(pre) / rc=2pass / bitrate=1443 / ratetol=1.0 / qcomp=0.60 / qpmin=10 / qpmax=51 / qpstep=4 / cplxblur=20.0 / qblur=0.5 / vbv_maxrate=17500 / vbv_bufsize=14000 / ip_ratio=1.40 / pb_ratio=1.30 / aq=1:1.00
Default : Yes
Forced : No

Audio
ID : 2
Format : AC-3
Format/Info : Audio Coding 3
Mode extension : CM (complete main)
Format settings, Endianness : Big
Codec ID : A_AC3
Duration : 1h 25mn
Bit rate mode : Constant
Bit rate : 384 Kbps
Channel(s) : 6 channels
Channel positions : Front: L C R, Side: L R, LFE
Sampling rate : 48.0 KHz
Bit depth : 16 bits
Compression mode : Lossy
Stream size : 235 MiB (21%)
Default : Yes
Forced : No

591a538b8f107f158350e53199fdc7844e120aeaБессмертные души / Soul Survivors (Стивен Карпентер, ужасы, триллер, драма, детектив, 2001) [DVDRip-AVC, Профессиональный (многоголосый, закадровый)] Бессмертные души / Soul Survivors (Стивен Карпентер, ужасы, триллер, драма, детектив, 2001) [DVDRip-AVC, Профессиональный (многоголосый, закадровый)] " />

Аплоадер: Админ, дата: 29-03-2013, 03:23, торрент скачан: 359 раз

Понравилась раздача? Посмотрите эти:
  • Сезон убийц / Killing Season (Марк Стивен Джонсон, триллер, драма, боевик, ...
  • Пастырь / Priest (Скотт Чарльз Стюарт, ужасы, фантастика, боевик, триллер, ...
  • Ничего себе поездочка / Joy Ride (Джон Дал, триллер, драма, детектив, 2001) ...
  • Странный Томас / Odd Thomas (Стивен Соммерс, триллер, детектив, 2013) [DVDR ...
  • Палата / The Ward (Джон Карпентер, Ужасы, триллер, 2010) [BDRip-AVC, Профес ...
  • Живая Мертвечина / Braindead (Питер Джексон, Ужасы, комедия, 1992) [BDRip-A ...
  • Гость / The Caller (Мэттью Паркхилл, триллер, детектив, 2011) [BDRip 720p, ...
  • Водитель / The Driver (Уолтер Хилл, Боевик, триллер, драма, криминал, 1978) ...
  • Донни Дарко (Режиссерская версия) / Donnie Darko (Directors Cut) (Ричард Ке ...
  • Бессмертные души / Soul Survivors (Стивен Карпентер / Stephen Carpenter) ( ...
  • Общество мёртвых поэтов / Dead Poets Society (Питер Уир, драма, 1989) [DVDR ...
  • Похищенная / A Lonely Place to Die (Джулиан Джилби, триллер, криминал, прик ...
  • Видок / Vidocq (Питоф, триллер, детектив, мистика, 2001) [HDRip-AVC , Профе ...
  • Поворот не туда 4 / Wrong Turn 4 (Деклан О’Брайэн, ужасы, боевик, детектив, ...
  • Пятница 13-е / Friday the 13th (Шон С. Каннингэм, ужасы, триллер, детектив, ...
  • Пятница 13-е Часть 2 / Friday the 13th Part 2 (Стив Майнер, ужасы, триллер, ...
  • Пятница 13-е Часть III / Friday the 13th Part III (Стив Майнер, ужасы, трил ...
  • Оборотень: Зверь среди нас / Werewolf: The Beast Among Us (Луи Морно, ужасы ...
  • Забытое / The Forgotten (Джозеф Рубин, фантастика, триллер, драма, детектив ...
  • Вся королевская рать / All the Kings Men (Стивен Зеллиан, триллер, драма, 2 ...
  • Семь футов / Seven Below (Кевин Каррауэй, Ужасы, триллер, 2012) [BDRip 720p ...
  • Mylene Farmer / Du Temps [2011, Pop, HDTVRip]
  • Mylene Farmer / Bleu Noir [2011, Pop, HDTVRip]
  • Хостел 3 / Hostel: Part III (Скотт Спигел / Scott Spiegel, ужасы, триллер, ...
  • Болото / Venom (Джим Гиллеспи, ужасы, триллер,2005) [BDRip-AVC, Профессиона ...
  • Информация
    Посетители, находящиеся в группе Гости, не могут оставлять комментарии к данной публикации.