вход на сайт

Имя пользователя :
Пароль :

Восстановление пароля Регистрация
Азбука смерти / The ABCs of Death (Кааре Эндрюс, Нобору Игучи, Ужасы, 2012) [BDRip-AVC, Профессиональный (многоголосый, закадровый), Оригинал (английский), Sub]
Рейтинг:
(голосов: 1)



[img]{THEME}/images/logopost.png[/img]



Азбука смерти / The ABCs of Death
«26 Directors, 26 Ways to Die»


Год выпуска: 2012
Страна: США, Новая Зеландия
Производство: Drafthouse Films, Magnet Releasing
Жанр: Ужасы

Режиссёр: Кааре Эндрюс, Нобору Игучи, Томас Каппелен Маллинг, Хорхе Мишель Грау, Андерс Моргенталер, Ёсихиро Нисимура, Баньенг Писензенекун, Саймон Рамли, Марсель Сармиенто, Джон Шнепп, Срджан Спасоевич, Анджела Беттис, Тимо Тьяджанто, Эндрю Трауки, Начо Вигалондо, Джэйк Уэст, Тай Уэст, Бен Уитли, Адам Вингард, Юдай Ямагути, Элен Катте, Эрнесто Диаз Эспиноза, Джейсон Айзенер, Брюно Форзани, Адриан Гарсия Боглиано, Ксавье Жанс, Ли Хардкэсл
В ролях: Ингрид Болсай Бердал, Кира Загорский, Иван Гонзалез, Даллас Маллой, Ли Хардкэсл, Эрик Од, Люси Клементс, Даренция Матч, Хироко Ясики...

Перевод: Профессиональный (многоголосый, закадровый), Оригинал (английский)
Субтитры: русский

Описание: Каждый из режиссеров выбирает себе букву алфавита и слово, начинающееся на эту букву. Вокруг них и должен строиться сюжет отдельной новеллы. Зрители станут свидетелями самых изощренных убийств по алфавиту от A до Z.



Качество: BDRip-AVC | Сэмпл
Продолжительность: 02:09:17 час.


Формат: MKV
Видео кодек: x264
Аудио кодек: AC3
Видео: 1024x576 (16:9), 24.000 fps, x264 ~ 2313 kbps avg, 0.163 bit/pixel
Аудио#1: 48 kHz, AC3 Dolby Digital, 3/2 (L,C,R,l,r) + LFE ch, ~448 kbps - (MVO)
Аудио#2: 48 kHz, AC3 Dolby Digital, 3/2 (L,C,R,l,r) + LFE ch, ~448 kbps - (Оригинал)

Дата премьеры (мир): 15 сентября 2012

MediaInfo ▼
Общее
Полное имя : Azbuka.smerti.2012.P.BDRip-AVC.mkv
Формат : Matroska
Версия формата : Version 4 / Version 2
Размер файла : 2,90 Гбайт
Продолжительность : 2 ч. 9 м.
Общий поток : 3211 Кбит/сек
Дата кодирования : UTC 2013-03-26 15:56:13
Программа кодирования : mkvmerge v6.1.0 (Old Devil) built on Mar 2 2013 14:32:37
Библиотека кодирования : libebml v1.3.0 + libmatroska v1.4.0

Видео
Идентификатор : 1
Формат : AVC
Формат/Информация : Advanced Video Codec
Профиль формата : [email protected]
Параметр CABAC формата : Да
Параметр ReFrames формата : 11 кадров
Идентификатор кодека : V_MPEG4/ISO/AVC
Продолжительность : 2 ч. 9 м.
Битрейт : 2313 Кбит/сек
Ширина : 1024 пикселя
Высота : 576 пикселей
Соотношение сторон : 16:9
Режим частоты кадров : Постоянный
Частота кадров : 24,000 кадра/сек
Цветовое пространство : YUV
Субдискретизация насыщенности : 4:2:0
Битовая глубина : 8 бит
Тип развёртки : Прогрессивная
Бит/(Пиксели*Кадры) : 0.163
Размер потока : 2,03 Гбайт (70%)
Библиотека кодирования : x264 core 119 r2106 07efeb4
Настройки программы : cabac=1 / ref=11 / deblock=1:-2:-1 / analyse=0x3:0x113 / me=umh / subme=9 / psy=1 / psy_rd=1.00:0.10 / mixed_ref=1 / me_range=32 / chroma_me=1 / trellis=2 / 8x8dct=1 / cqm=0 / deadzone=21,11 / fast_pskip=1 / chroma_qp_offset=-3 / threads=9 / sliced_threads=0 / nr=0 / decimate=1 / interlaced=0 / bluray_compat=0 / constrained_intra=0 / bframes=10 / b_pyramid=2 / b_adapt=2 / b_bias=0 / direct=3 / weightb=1 / open_gop=0 / weightp=2 / keyint=240 / keyint_min=23 / scenecut=40 / intra_refresh=0 / rc_lookahead=80 / rc=2pass / mbtree=1 / bitrate=2313 / ratetol=1.0 / qcomp=0.60 / qpmin=0 / qpmax=69 / qpstep=4 / cplxblur=20.0 / qblur=0.5 / ip_ratio=1.40 / aq=2:0.90
Язык : English
Default : Да
Forced : Нет

Аудио #1
Идентификатор : 2
Формат : AC-3
Формат/Информация : Audio Coding 3
Расширение режима : CM (complete main)
Параметр Endianness формата : Big
Идентификатор кодека : A_AC3
Продолжительность : 2 ч. 9 м.
Вид битрейта : Постоянный
Битрейт : 448 Кбит/сек
Каналы : 6 каналов
Расположение каналов : Front: L C R, Side: L R, LFE
Частота : 48,0 КГц
Битовая глубина : 16 бит
Метод сжатия : С потерями
Размер потока : 414 Мбайт (14%)
Язык : Russian
Default : Да
Forced : Нет

Аудио #2
Идентификатор : 3
Формат : AC-3
Формат/Информация : Audio Coding 3
Расширение режима : CM (complete main)
Параметр Endianness форм
f88d052723a98b476d4583e8475313425e520550Азбука смерти / The ABCs of Death (Кааре Эндрюс, Нобору Игучи, Ужасы, 2012) [BDRip-AVC, Профессиональный (многоголосый, закадровый), Оригинал (английский), Sub] Азбука смерти / The ABCs of Death (Кааре Эндрюс, Нобору Игучи, Ужасы, 2012) [BDRip-AVC, Профессиональный (многоголосый, закадровый), Оригинал (английский), Sub] " />

Аплоадер: Админ, дата: 26-03-2013, 23:43, торрент скачан: 359 раз

Понравилась раздача? Посмотрите эти:
  • Ночь страха 2: Свежая кровь / Fright Night 2: New Blood (Эдуардо Родригез, ...
  • Ночь страха 2: Свежая кровь / Fright Night 2: New Blood (Эдуардо Родригез, ...
  • Погнали! / Getaway (Кортни Соломон, боевик, криминал, 2013) [BDRip 1080p, П ...
  • Странный Томас / Odd Thomas (Стивен Соммерс, триллер, детектив, 2013) [BDRi ...
  • Погнали! / Getaway (Кортни Соломон, боевик, криминал, 2013) [BDRip-AVC, Про ...
  • Филадельфия / Philadelphia (Джонатан Демме, Драма, 1993) [BDRip-AVC, Профес ...
  • Никто не выжил / No One Lives (Рюхэй Китамура, Триллер, ужасы, 2012) [BDRip ...
  • Летучий отряд Скотланд-Ярда / The Sweeney (Ник Лав, Боевик, драма, криминал ...
  • Залив / The Bay (Барри Левинсон, Ужасы, фантастика, триллер, 2012) [BDRip-A ...
  • Порочные игры / Stoker (Пак Чхан Ук, Триллер, драма, детектив, 2013) [BDRip ...
  • Порочные игры / Stoker (Пак Чхан Ук, Триллер, драма, детектив, 2013) [BDRip ...
  • Рикошет / Ricochet (Ник Гомез, драма, детектив, 2011) [BDRip-AVC, Профессио ...
  • Даю год / I Give It a Year (Дэн Мазер, мелодрама, комедия, 2012) [BDRip-AVC ...
  • Огонь Кристиана Лубутена 3D / FEU: Crazy Horse Paris (Бруно Халлин, Докумен ...
  • Пакт / The Pact (Николас МакКарти, ужасы, триллер, детектив, 2012) [BDRip-A ...
  • Магазинчик самоубийств 3D / Le magasin des suicides (Патрис Леконт, мультфи ...
  • Азбука смерти / The ABCs of Death (Кааре Эндрюс, Анджела Беттис, Элен Катте ...
  • Азбука смерти / The ABCs of Death (Кааре Эндрюс, Анджела Беттис, Элен Катте ...
  • Азбука смерти / The ABCs of Death (Кааре Эндрюс, Нобору Игучи, Ужасы, 2012) ...
  • Азбука смерти / The ABCs of Death (Кааре Эндрюс, Анджела Беттис, Элен Катте ...
  • Азбука смерти / The ABCs of Death (Кааре Эндрюс, Ужасы, 2012) [320x240] [BD ...
  • Толстяк на ринге / Here Comes the Boom (Фрэнк Корачи, Боевик, комедия, 2012 ...
  • Суррогат / The Sessions (Бен Луин, Драма, 2012) [BDRip-AVC, Профессиональны ...
  • Эд Вуд / Ed Wood (Тим Бёртон, драма, комедия, биография, 1994) [BDRip-AVC, ...
  • Поворот не туда 5 / Wrong Turn 5 (Деклан О’Брайэн, ужасы, триллер, 2012) [B ...
  • Информация
    Посетители, находящиеся в группе Гости, не могут оставлять комментарии к данной публикации.