вход на сайт

Имя пользователя :
Пароль :

Восстановление пароля Регистрация
Зодиак / The Zodiac (Александр Балкли, ужасы, триллер, драма, криминал, детектив, 2005) [DVDRip, Профессиональный (полное дублирование), Оригинал]
Рейтинг:
(голосов: 1)



[img]{THEME}/images/logopost.png[/img]



Зодиак / The Zodiac
«The most infamous serial killer of our time... is still out there.»

Год выпуска: 2005
Страна: США
Производство: Myriad Pictures Inc., Shadow Machine Films
Жанр: ужасы, триллер, драма, криминал, детектив

Режиссёр: Уэс Крэйвен / Wes Craven
В ролях: Джастин Чэмберс, Робин Танни, Рори Калкин, Уильям Мэйпотер, Брэд Хенке, Рекс Линн, Филип Бэйкер Холл, Марти Линдси, Брайан Блум, Шелби Алексис Ирей...

Перевод: Профессиональный (полное дублирование), Оригинал (английский)
Субтитры: нет

Описание: Жестокое, изощренное убийство двух подростков 20 декабря 1968 года вызвало волну ужаса и негодования в маленьком городке Валехо на севере Калифорнии.
Сержант Мэт Пэриш берется расследовать это кровавое дело. Из-за отсутствия улик, оно так и остается нераскрытым.

Журналисты поднимают шумиху в прессе вокруг двойного убийства, обвиняя полицию в бездействии. А через шесть месяцев, 4 июля 1969 года в самый разгар праздника на автомобильной стоянке были найдены два трупа, убитые похожим образом. На следующий день газеты получили письмо, в котором человек, называющий себя Зодиаком, сообщал, что убийства будут продолжаться…Качество: DVDRip | Сэмпл
Продолжительность: 01:32:36 час.

Формат: AVI
Видео кодек: DivX
Аудио кодек: AC3
Видео: 688x384 (1.79:1), 25 fps, DivX Codec 5.x ~1865 kbps avg, 0.28 bit/pixel
Аудио #1: 48 kHz, AC3 Dolby Digital, 2/0 (L,R) ch, ~192.00 kbps avg - (русский)
Аудио #2: 48 kHz, AC3 Dolby Digital, 2/0 (L,R) ch, ~192.00 kbps avg - (английский)

Дата премьеры (мир): 31 июля 2005
Дата премьеры (РФ): 3 августа 2006, «Twister»
"MediaInfo" ▼Format : AVI
Format/Info : Audio Video Interleave
File size : 1.46 GiB
Duration : 1h 32mn
Overall bit rate : 2 265 Kbps
Writing application : FairUse Wizard - http://fairusewizard.com
Writing library : The best and REALLY easy backup tool

Video
ID : 0
Format : MPEG-4 Visual
Format settings, BVOP : 1
Format settings, QPel : No
Format settings, GMC : No warppoints
Format settings, Matrix : Default (H.263)
Muxing mode : Packed bitstream
Codec ID : DX50
Codec ID/Hint : DivX 5
Duration : 1h 32mn
Bit rate : 1 866 Kbps
Width : 688 pixels
Height : 384 pixels
Display aspect ratio : 16:9
Frame rate : 25.000 fps
Color space : YUV
Chroma subsampling : 4:2:0
Bit depth : 8 bits
Scan type : Progressive
Compression mode : Lossy
Bits/(Pixel*Frame) : 0.283
Stream size : 1.21 GiB (82%)
Writing library : DivX 6.8.2 (UTC 2008-05-17)

Audio #1
ID : 1
Format : AC-3
Format/Info : Audio Coding 3
Format profile : Dolby Digital
Mode extension : CM (complete main)
Format settings, Endianness : Big
Codec ID : 2000
Duration : 1h 32mn
Bit rate mode : Constant
Bit rate : 192 Kbps
Channel(s) : 2 channels
Channel positions : Front: L R
Sampling rate : 48.0 KHz
Bit depth : 16 bits
Compression mode : Lossy
Stream size : 127 MiB (8%)
Alignment : Split accross interleaves
Interleave, duration : 40 ms (1.00 video frame)
Interleave, preload duration : 500 ms

Audio #2
ID : 2
Format : AC-3
Format/Info : Audio Coding 3
Format profile : Dolby Digital
Mode extension : CM (complete main)
Format settings, Endianness : Big
Codec ID : 2000
Duration : 1h 32mn
Bit rate mode : Constant
Bit rate : 192 Kbps
Channel(s) : 2 channels
Channel positions : Front: L R
Sampling rate : 48.0 KHz
Bit depth : 16 bits
Compression mode : Lossy
Stream size : 127 MiB (8%)
Alignment : Split accross interleaves
Interleave, duration : 40 ms (1.00 video frame)
Interleave, preload duration : 500 ms





c74c6924d16fb4908709d6a5ec740ed02f4ce574Зодиак / The Zodiac (Александр Балкли, ужасы, триллер, драма, криминал, детектив, 2005) [DVDRip, Профессиональный (полное дублирование), Оригинал] Зодиак / The Zodiac (Александр Балкли, ужасы, триллер, драма, криминал, детектив, 2005) [DVDRip, Профессиональный (полное дублирование), Оригинал] " />

Аплоадер: Админ, дата: 24-03-2013, 20:26, торрент скачан: 359 раз

Понравилась раздача? Посмотрите эти:
  • Орудие смерти / A-i-deul... (Ли Гю Ман, Триллер, криминал, 2011) [DVDRip, П ...
  • Верное дельце / Une pure affaire (Александр Коффре, Боевик, Комедия, Кримин ...
  • Безумный Макс 3: Под куполом грома / Mad Max Beyond Thunderdome (Джордж Мил ...
  • Мужество / Wymyk (Грег Зглински, драма, 2011) [DVDRip, Любительский (одного ...
  • Слабые проблески / Rushlights (Энтони Стац, Триллер, Мелодрама, Криминал, 2 ...
  • Неудержимый / Bullet to the Head (Уолтер Хилл, Боевик, триллер, криминал, 2 ...
  • Поймай толстуху, если сможешь [Театральная версия] / Identity Thief [Theatr ...
  • Решала (Роман Асхаев, Драма,Криминал, 2012) [WEB-DLRip, Не требуется]
  • Звук моего голоса / Sound of My Voice (Зал Батманглидж, триллер, драма, 201 ...
  • Слепой поворот / Blind Turn (Роберт Орр, Триллер, драма, детектив, 2012) [W ...
  • 23:59 / 23:59 (Гилберт Чан, Ужасы, 2011) [HDRip, Любительский (одноголосый ...
  • Костолом / Mean Machine (Барри Сколник, Драма, комедия, спорт, 2001) [DVDRi ...
  • Реальные Парни / Stand Up Guys (Фишер Стивенс, Драма, комедия, криминал, 20 ...
  • Покорители Волн / Chasing Mavericks (Майкл Эптед, Кёртис Хэнсон, Драма, спо ...
  • В доме / Dans la maison (Франсуа Озон, Триллер, детектив, 2012) [HDRip, Про ...
  • Тюремщик / Screwed (Рег Тревисс / Reg Traviss, Драма, 2011) [DVDRip , Люби ...
  • Плохая актриса / Bad Actress (Роберт Ли Кинг, комедия, 2011) [DVDRip, Профе ...
  • Зодиак [Режиссёрская версия] / Zodiac [Directors cut] (Дэвид Финчер, трилле ...
  • Супер циклон / Super Cyclone (Лиз Адамс / Liz Adams, боевик, 2012) [HDRip, ...
  • Захват / Carjacked (Джон Бонито, триллер, 2011)[BDRip, Профессиональный (мн ...
  • Коллекционер 2 / The Collection (Маркус Данстэн, ужасы, боевик, триллер , 2 ...
  • Влюбленные (Валерий Бебко, Комедия, 2011) [DVDRip, Оригинал]
  • Супершторм в Сиэтле / Seattle Superstorm (Джейсон Бурк, фантастика, боевик ...
  • Инкубус / Inkubus (Гленн Чиано, Ужасы, 2011) [DVDRip, Профессиональный (мно ...
  • Мемуары гейши / Memoirs of a Geisha (Роб Маршалл, драма, мелодрама, 2005) [ ...
  • Информация
    Посетители, находящиеся в группе Гости, не могут оставлять комментарии к данной публикации.