вход на сайт

Имя пользователя :
Пароль :

Восстановление пароля Регистрация
Кошмары на стоянке трейлеров / Trailer Park of Terror (Стивен Голдманн, ужасы, триллер, 2008) [HDTVRip-AVC, Профессиональный (многоголосый, закадровый)]
Рейтинг:
(голосов: 1)



[img]{THEME}/images/logopost.png[/img]



«Кошмары на стоянке трейлеров / Trailer Park of Terror»

¤Fear Has A New Home!¤

¤Информация о фильме¤
Год выпуска: 2008
Страна: США
Производство: Bogner Entertainment, Trailer Park Partners
Жанр: ужасы, триллер

Режиссёр: Стивен Голдманн / Steven Goldmann
В ролях: Николь Хильтц, Лью Темпл, Джинетт Брокс, Мик Вотфорд, Мишель Ли, Эд Корбин, Рики Мейб, Коди МакМейнс, Хейли Норман, Райан Карнес

Перевод: Профессиональный (многоголосый, закадровый)
Озвучка: не известно
Субтитры: нет

Описание
¤ ¤ ¤
«Шестеро проблемных школьников вместе со своим пастором едут в горы, но во время сильной грозы вынуждены остаться на ночь на безлюдной стоянке трейлеров. Только ночью, эта стоянка обретает совершенно иные черты и на ней господствует… ужас!!!»
¤ ¤ ¤





¤Тех.Данные¤
Качество: HDTVRip-AVC
Продолжительность: ~ 01:33:17 часа

Формат: Matroska-MKV-
Видео кодек: AVC [email protected]
Аудио кодек: Audio Coding 3
Видео: 1024x576 (16:9), 25.000 fps, AVC ~2300 kbps avg, 0.156 bit/pixel
Аудио: 48.00 kHz, AC3 Dolby Digital, 2/0 (L,R) ch, ~448.00 kbps

Информация MediaInfo ▼TextОбщее
Уникальный идентификатор : 215199778653130536394382605921090669171 (0xA1E5F84311147C6C9772E1FCA87A0A73)
Полное имя : E:DownloadsКошмары на стоянке трейлеров.2008.HDTVRip-AVC.mkv
Формат : Matroska
Версия формата : Version 2
Размер файла : 1,79 Гбайт
Продолжительность : 1 ч. 33 м.
Общий поток : 2748 Кбит/сек
Дата кодирования : UTC 2013-04-01 00:16:33
Программа кодирования : mkvmerge v5.8.0 (No Sleep / Pillow) built on Sep 2 2012 15:37:04
Библиотека кодирования : libebml v1.2.3 + libmatroska v1.3.0

Видео
Идентификатор : 1
Формат : AVC
Формат/Информация : Advanced Video Codec
Профиль формата : [email protected]
Параметр CABAC формата : Да
Параметр ReFrames формата : 4 кадра
Идентификатор кодека : V_MPEG4/ISO/AVC
Продолжительность : 1 ч. 33 м.
Битрейт : 2300 Кбит/сек
Ширина : 1024 пикселя
Высота : 576 пикселей
Соотношение сторон : 16:9
Частота кадров : 25,000 кадров/сек
Цветовое пространство : YUV
Субдискретизация насыщенности : 4:2:0
Битовая глубина : 8 бит
Тип развёртки : Прогрессивная
Бит/(Пиксели*Кадры) : 0.156
Размер потока : 1,46 Гбайт (82%)
Библиотека кодирования : x264 core 125 r2208 d9d2288
Настройки программы : cabac=1 / ref=4 / deblock=1:-2:-2 / analyse=0x3:0x133 / me=umh / subme=10 / psy=1 / psy_rd=1.00:0.00 / mixed_ref=1 / me_range=32 / chroma_me=1 / trellis=2 / 8x8dct=1 / cqm=0 / deadzone=21,11 / fast_pskip=0 / chroma_qp_offset=-2 / threads=6 / lookahead_threads=1 / sliced_threads=0 / nr=0 / decimate=0 / interlaced=0 / bluray_compat=0 / constrained_intra=0 / bframes=8 / b_pyramid=2 / b_adapt=2 / b_bias=0 / direct=3 / weightb=1 / open_gop=0 / weightp=2 / keyint=250 / keyint_min=25 / scenecut=40 / intra_refresh=0 / rc=2pass / mbtree=0 / bitrate=2300 / ratetol=1.0 / qcomp=0.60 / qpmin=0 / qpmax=69 / qpstep=4 / cplxblur=20.0 / qblur=0.5 / ip_ratio=1.40 / pb_ratio=1.30 / aq=1:0.80
Default : Да
Forced : Нет

Аудио
Идентификатор : 2
Формат : AC-3
Формат/Информация : Audio Coding 3
Расширение режима : CM (complete main)
Идентификатор кодека : A_AC3
Продолжительность : 1 ч. 33 м.
Вид битрейта : Постоянный
Битрейт : 448 Кбит/сек
Каналы : 2 канала
Расположение каналов : Front: L R
Частота : 48,0 КГц
Битовая глубина : 16 бит
Метод сжатия : С потерями
Размер потока : 299 Мбайт (16%)
Default : Да
Forced : Нет




d58be80ddb2bc5f4d3d180c4ee7276dfc85663f1Кошмары на стоянке трейлеров / Trailer Park of Terror (Стивен Голдманн, ужасы, триллер, 2008) [HDTVRip-AVC, Профессиональный (многоголосый, закадровый)] Кошмары на стоянке трейлеров / Trailer Park of Terror (Стивен Голдманн, ужасы, триллер, 2008) [HDTVRip-AVC, Профессиональный (многоголосый, закадровый)] " />

Аплоадер: Админ, дата: 4-04-2013, 16:46, торрент скачан: 359 раз

Понравилась раздача? Посмотрите эти:
  • [NG] Комета века / Comet of the century (документальный, 2013) [HDTVRip-AVC ...
  • Мэрайа Мунди и шкатулка Мидаса / The Adventurer: The Curse of the Midas Box ...
  • Главный бой Мухаммеда Али / Muhammad Alis Greatest Fight (Стивен Фрирз, дра ...
  • Заклятие / The Conjuring (Джеймс Ван, ужасы, триллер, 2013) [BDRip 720р, Ду ...
  • Филадельфия / Philadelphia (Джонатан Демме, Драма, 1993) [BDRip-AVC, Профес ...
  • Башня / The Tower (Чи-хун Ким, драма, 2012) [BDRip-AVC, Любительский (двухг ...
  • Никто не выжил / No One Lives (Рюхэй Китамура, Триллер, ужасы, 2012) [BDRip ...
  • Летучий отряд Скотланд-Ярда / The Sweeney (Ник Лав, Боевик, драма, криминал ...
  • Залив / The Bay (Барри Левинсон, Ужасы, фантастика, триллер, 2012) [BDRip-A ...
  • Фантомы / Shutter (Масаюки Очиай, ужасы, триллер, детектив, 2008) [BDRip-AV ...
  • Голливудский мусор / Garbage (Филипп Волкен, драма, комедия, 2013) [HDTVRip ...
  • Рикошет / Ricochet (Ник Гомез, драма, детектив, 2011) [BDRip-AVC, Профессио ...
  • [NG] На крючке: Ловля монстров. Гигантский скат / Monster Fish. Giant Sting ...
  • [NG] Война львов / Lion Battle Zone (документальный, 2011) [HDTVRip-AVC, Пр ...
  • Дикий запад. Кино и реальность / The Wild And The West (документальный, 200 ...
  • Пожираемые заживо / Insanitarium (Джефф Бюхлер, ужасы, триллер, 2008) [DVDR ...
  • Суррогат / The Sessions (Бен Луин, Драма, 2012) [BDRip-AVC, Профессиональны ...
  • Чемпионат Англии 2012-2013 / 25-й тур / Обзор / Суббота / BBC Sport [2013 г ...
  • Думай, как мужчина / Think Like a Man (Тим Стори, Мелодрама, комедия, 2012) ...
  • Образец 47 / Marvel One-Shot: Item 47 (Луис Д’Эспозито, короткометражка, фа ...
  • Поворот не туда 5 / Wrong Turn 5 (Деклан О’Брайэн, ужасы, триллер, 2012) [B ...
  • Заражение / Contagion (Стивен Содерберг, Фантастика, 2011) [BDRip 1080p, Пр ...
  • Лоракс: Серенада / The Lorax: Serenade (Кайл Балда, мультфильм, комедия, му ...
  • Чемпионат Англии 2012-2013 / 19-й тур / Обзор / Среда / BBC Sport [2012 г., ...
  • Кошмары на стоянке трейлеров / Trailer Park of Terror (Стивен Голдманн, ужа ...
  • Информация
    Посетители, находящиеся в группе Гости, не могут оставлять комментарии к данной публикации.