вход на сайт

Имя пользователя :
Пароль :

Восстановление пароля Регистрация
Живая Мертвечина / Braindead (Питер Джексон, Ужасы, комедия, 1992) [BDRip-AVC, Профессиональный (многоголосый, закадровый)]
Рейтинг:
(голосов: 1)



[img]{THEME}/images/logopost.png[/img]



Живая Мертвечина / Braindead
«The rot has set in....»

Год выпуска: 1992
Страна: Новая Зеландия
Производство: WingNut Films, The New Zealand Film Comission, Avalon
Жанр: Ужасы, комедия

Режиссёр: Питер Джексон
В ролях: Тимоти Балме, Диана Пеньялвер, Элизабет Муди, Иан Уоткин, Бренда Кендл, Стюарт Девени, Дэвина Уайтхаус, Форрест Джей Экермэн, Питер Вер-Джонс, Джоржд Порт

Перевод: Профессиональный (многоголосый, закадровый)
Субтитры: Отсутствуют

Описание:
1957 год. С острова Суматра вывезена обезьяна, из-за одного укуса которой туземцы отрубили зоологу, приехавшему ее отловить, обе руки, а затем и голову. Уже в наше время эта тварь укусила злобную мамашу нашего героя, которая не дает ему встречаться с любимой девушкой. Последствия укуса ужасны, картину постепенно населяют жуткие зомби…

Автор рипа:
_Bathory_



Дата премьеры (мир): 30 июля 1992

Качество: BDRip-AVC
Продолжительность:01:37:23 час.

Формат: MKV
Видео кодек: x264
Аудио кодек: AC3
Видео: 1024x576 (16:9), 23.976 fps, x264 ~2 980 kbps avg, 0.211 bit/pixel
Аудио: 48 kHz, AC3 Dolby Digital, 2 ch, ~224.00 kbps avg

MediaInfo ▼General
Unique ID : 248749193872693819479859673995945628778 (0xBB235A2405C6B64599C1573691F6D46A)
Complete name : H:Живая Мертвечина (1992. Dead Alive)bdrip-muxed.mkv
Format : Matroska
Format version : Version 2
File size : 2.18 GiB
Duration : 1h 37mn
Overall bit rate : 3 203 Kbps
Encoded date : UTC 2013-04-13 08:57:02
Writing application : mkvmerge v6.1.0 (Old Devil) built on Mar 2 2013 14:32:37
Writing library : libebml v1.3.0 + libmatroska v1.4.0

Video
ID : 1
Format : AVC
Format/Info : Advanced Video Codec
Format profile : [email protected]
Format settings, CABAC : Yes
Format settings, ReFrames : 10 frames
Codec ID : V_MPEG4/ISO/AVC
Duration : 1h 37mn
Bit rate : 2 980 Kbps
Width : 1 024 pixels
Height : 576 pixels
Display aspect ratio : 16:9
Frame rate mode : Constant
Frame rate : 23.976 fps
Color space : YUV
Chroma subsampling : 4:2:0
Bit depth : 8 bits
Scan type : Progressive
Bits/(Pixel*Frame) : 0.211
Stream size : 1.98 GiB (91%)
Writing library : x264 core 130 r2273 b3065e6
Encoding settings : cabac=1 / ref=10 / deblock=1:-3:-3 / analyse=0x3:0x113 / me=umh / subme=10 / psy=1 / psy_rd=1.08:0.16 / mixed_ref=1 / me_range=32 / chroma_me=1 / trellis=2 / 8x8dct=1 / cqm=0 / deadzone=21,11 / fast_pskip=1 / chroma_qp_offset=-5 / threads=6 / lookahead_threads=1 / sliced_threads=0 / nr=4 / decimate=1 / interlaced=0 / bluray_compat=0 / constrained_intra=0 / bframes=3 / b_pyramid=2 / b_adapt=2 / b_bias=0 / direct=3 / weightb=1 / open_gop=0 / weightp=2 / keyint=240 / keyint_min=22 / scenecut=40 / intra_refresh=0 / rc_lookahead=60 / rc=2pass / mbtree=0 / bitrate=2980 / ratetol=1.0 / qcomp=0.70 / qpmin=10 / qpmax=69 / qpstep=4 / cplxblur=20.0 / qblur=0.5 / vbv_maxrate=62500 / vbv_bufsize=78125 / nal_hrd=none / ip_ratio=1.40 / pb_ratio=1.30 / aq=1:1.00
Default : Yes
Forced : No

Audio
ID : 2
Format : AC-3
Format/Info : Audio Coding 3
Mode extension : CM (complete main)
Format settings, Endianness : Big
Codec ID : A_AC3
Duration : 1h 37mn
Bit rate mode : Constant
Bit rate : 224 Kbps
Channel(s) : 2 channels
Channel positions : Front: L R
Sampling rate : 48.0 KHz
Bit depth : 16 bits
Compression mode : Lossy
Stream size : 156 MiB (7%)
Default : Yes
Forced : No





049d91fe1dd8e4b73b8f5c4930d23b239e8b04a1Живая Мертвечина / Braindead (Питер Джексон, Ужасы, комедия, 1992) [BDRip-AVC, Профессиональный (многоголосый, закадровый)] Живая Мертвечина / Braindead (Питер Джексон, Ужасы, комедия, 1992) [BDRip-AVC, Профессиональный (многоголосый, закадровый)] " />

Аплоадер: Админ, дата: 21-04-2013, 21:19, торрент скачан: 359 раз

Понравилась раздача? Посмотрите эти:
  • FLO / NRG [2012, Pop, Dance, MasterRip]
  • Погнали! / Getaway (Кортни Соломон, боевик, криминал, 2013) [BDRip 720p, Пр ...
  • Zомби каникулы (Кирилл Кемниц, Ужасы, триллер, комедия, 2013) [BDRip 720p, ...
  • Последний вампир / Blood: The Last Vampire (Крис Наон, Ужасы, фэнтези, боев ...
  • UFC The Ultimate 100 Knockouts - PPV [MMA,2013, HDTVRip 720p]
  • Смерть на похоронах / Death at a Funeral (Нил ЛаБут, комедия, 2010) [BDRip ...
  • Отдел 13 / Diamant 13 (Гайллз Бэхат, Боевик, триллер, криминал, 2009) [BDRi ...
  • Муви 43 / Movie 43 (Стивен Брилл, Питер Фаррелли, Элизабет БэнксСтивен, ком ...
  • Муви 43 / Movie 43 (Стивен Брилл, Питер Фаррелли, Элизабет БэнксСтивен, ком ...
  • Поворот не туда 4 / Wrong Turn 4 (Деклан О’Брайэн, ужасы, боевик, детектив, ...
  • Страшилы (Режиссерская версия) / The Frighteners (Directors cut) (Питер Дже ...
  • Пятница 13-е / Friday the 13th (Шон С. Каннингэм, ужасы, триллер, детектив, ...
  • Странная жизнь Тимоти Грина / The Odd Life of Timothy Green (Питер Хеджес, ...
  • Семь футов / Seven Below (Кевин Каррауэй, Ужасы, триллер, 2012) [BDRip 720p ...
  • Mylene Farmer / Du Temps [2011, Pop, HDTVRip]
  • Mylene Farmer / Bleu Noir [2011, Pop, HDTVRip]
  • Дело - труба / Brassed Off (Марк Херман, драма, мелодрама, комедия, 1996) [ ...
  • Живая мертвечина / Dead alive (Питер Джексон) [1992 г., ужасы, комедия, DVD ...
  • Живая Мертвечина / Dead Alive / Braindead (Питер Джексон, Ужасы, Комедия, 1 ...
  • Живая мертвечина / Мертв мозгом / Braindead / Dead Alive (Питер Джексон / P ...
  • Информация
    Посетители, находящиеся в группе Гости, не могут оставлять комментарии к данной публикации.