вход на сайт

Имя пользователя :
Пароль :

Восстановление пароля Регистрация
Пакт / The Pact (Николас МакКарти, ужасы, триллер, детектив, 2012) [BDRip-AVC, Профессиональный (многоголосый, закадровый), Оригинал (английский) + Sub]
Рейтинг:
(голосов: 1)



[img]{THEME}/images/logopost.png[/img]



Пакт / The Pact

Год выпуска: 2012
Страна: США
Производство: Preferred Content
Жанр: ужасы, триллер, детектив

Режиссёр: Николас МакКарти
В ролях: Кейти Лотц, Кэтлин Роуз Перкинс, Хейли Хадсон, Сэмюэл Болл, Марк Стегер, Агнес Бракнер, Каспер Ван Дин, Анджини Танеджа Азар, Бо Баррет, Дакота Брайт

Перевод: Профессиональный (многоголосый, закадровый), Оригинал (английский)
Субтитры: Английские, русские

Описание: После смерти матери сестры Николь и Энни неохотно возвращаются в дом своего детства. Во время пребывания там, ночью, сестры чувствуют таинственное присутствие чего-то или кого-то: пугающий шум, движение объектов. Девушкам предстоит пережить несколько часов кошмара, чтобы узнать об ужасном прошлом их матери…





Качество: BDRip-AVC | The Pact 2012 1080p Bluray Remux AVC DTS-HD MA 5.1-HDSpace
Продолжительность: 01:28:52

Формат: MKV
Видео кодек: x.264
Аудио кодек: AC3
Видео: H.264, 1280x688 (1,85:1), 23,976 fps, 2211 Кbps, 0.105 bit/pixel
Аудио#1:48 kHz, AC3 Dolby Digital, 3/2 (L,C,R,l,r) + LFE ch, 448.00 kbps | RUS
Аудио#2:48 kHz, AC3 Dolby Digital, 3/2 (L,C,R,l,r) + LFE ch, 448.00 kbps | ENG

Премьера (мир): 20 января 2012
релиз на DVD: 18 марта 2013, «Новый Диск»

Media Info ▼Общее
Уникальный идентификатор : 186852096188088769897236783922324641836 (0x8C92679BDCB0841EB6FEC9C206B3182C)
Полное имя : Pakt.2012.P.BDRip.720p.potroks.mkv
Формат : Matroska
Версия формата : Version 4 / Version 2
Размер файла : 1,89 Гбайт
Продолжительность : 1 ч. 25 м.
Общий поток : 3170 Кбит/сек
Название фильма : -=POTROKS=-
Дата кодирования : UTC 2013-05-18 17:35:24
Программа кодирования : mkvmerge v5.9.0 (On The Loose) built on Dec 15 2012 16:39:58
Библиотека кодирования : libebml v1.3.0 + libmatroska v1.4.0

Видео
Идентификатор : 1
Формат : AVC
Формат/Информация : Advanced Video Codec
Профиль формата : [email protected]
Параметр CABAC формата : Да
Параметр ReFrames формата : 7 кадров
Идентификатор кодека : V_MPEG4/ISO/AVC
Продолжительность : 1 ч. 25 м.
Битрейт : 2211 Кбит/сек
Номинальный битрейт : 2615 Кбит/сек
Ширина : 1280 пикселей
Высота : 688 пикселей
Соотношение сторон : 1,85:1
Режим частоты кадров : Постоянный
Частота кадров : 23,976 кадра/сек
Цветовое пространство : YUV
Субдискретизация насыщенности : 4:2:0
Битовая глубина : 8 бит
Тип развёртки : Прогрессивная
Бит/(Пиксели*Кадры) : 0.105
Размер потока : 1,32 Гбайт (70%)
Заголовок : The Pact
Библиотека кодирования : x264 core 128 r2216M 198a7ea
Настройки программы : cabac=1 / ref=8 / deblock=1:-2:-2 / analyse=0x3:0x133 / me=umh / subme=11 / psy=1 / psy_rd=1.06:0.03 / mixed_ref=1 / me_range=32 / chroma_me=1 / trellis=2 / 8x8dct=1 / cqm=0 / deadzone=21,11 / fast_pskip=0 / chroma_qp_offset=-3 / threads=6 / lookahead_threads=1 / sliced_threads=0 / nr=0 / decimate=0 / interlaced=0 / bluray_compat=0 / constrained_intra=0 / bframes=9 / b_pyramid=1 / b_adapt=2 / b_bias=0 / direct=3 / weightb=1 / open_gop=0 / weightp=2 / keyint=240 / keyint_min=23 / scenecut=40 / intra_refresh=0 / rc_lookahead=150 / rc=2pass / mbtree=1 / bitrate=2615 / ratetol=1.0 / qcomp=0.70 / qpmin=0 / qpmax=69 / qpstep=4 / cplxblur=20.0 / qblur=0.5 / vbv_maxrate=50000 / vbv_bufsize=62500 / nal_hrd=none / ip_ratio=1.35 / aq=1:0.70
Язык : English
Default : Да
Forced : Нет

Аудио #1
Идентификатор : 2
Формат : AC-3
Формат/Информация : Audio Coding 3
Расширение режима : CM (complete main)
Параметр Endianness формата : Big
Идентификатор кодека : A_AC3
Продолжительность : 1 ч. 25 м.
Вид битрейта : Постоянный
Битрейт : 448 Кбит/сек
Каналы : 6 каналов
Расположение каналов : Front: L C R, Side: L R, LFE
Частота : 48,0 КГц
Битовая глубина : 16 бит
Метод сжатия : С потерями
Задержка видео : 27 мс.
Размер потока : 273 Мбайт (14%)
Заголовок : MVO | DD 5.1 @ 448 kbps - R5
Язык : Russian
Default : Да
Forced : Да

Аудио #2
Идентификато
53747f7f7538c27d6cc6ead290fd1a1e71db1162Пакт / The Pact (Николас МакКарти, ужасы, триллер, детектив, 2012) [BDRip-AVC, Профессиональный (многоголосый, закадровый), Оригинал (английский) + Sub] Пакт / The Pact (Николас МакКарти, ужасы, триллер, детектив, 2012) [BDRip-AVC, Профессиональный (многоголосый, закадровый), Оригинал (английский) + Sub] " />

Аплоадер: Админ, дата: 19-05-2013, 00:36, торрент скачан: 359 раз

Понравилась раздача? Посмотрите эти:
  • Одноклассники 2 / Grown Ups 2 (Деннис Дуган, Комедия, 2013) [BDRip-AVC, Про ...
  • Погнали! / Getaway (Кортни Соломон, боевик, криминал, 2013) [BDRip 1080p, П ...
  • Погнали! / Getaway (Кортни Соломон, боевик, криминал, 2013) [BDRip-AVC, Про ...
  • Византия / Byzantium (Нил Джордан, Фэнтези, триллер, драма, 2012) [BDRip 10 ...
  • Заклятие / The Conjuring (Джеймс Ван, ужасы, триллер, 2013) [BDRip 720р, Ду ...
  • Заклятие / The Conjuring (Джеймс Ван, ужасы, триллер, 2013) [BDRip 1080p, Д ...
  • Стукач / Snitch (Рик Роман Во, Триллер, драма, 2013) [BDRip-AVC, Дубляж, Ор ...
  • Невероятный Бёрт Уандерстоун / The Incredible Burt Wonderstone (Дон Скардин ...
  • Тревожный вызов / The Call (Брэд Андерсон, Триллер, 2013) [BDRip-AVC, Профе ...
  • Никто не выжил / No One Lives (Рюхэй Китамура, Триллер, ужасы, 2012) [BDRip ...
  • Кровь / Blood (Ник Мерфи, Триллер, детектив, 2012) [BDRip-AVC, Профессионал ...
  • Летучий отряд Скотланд-Ярда / The Sweeney (Ник Лав, Боевик, драма, криминал ...
  • Невероятный Бёрт Уандерстоун / The Incredible Burt Wonderstone (Дон Скардин ...
  • Залив / The Bay (Барри Левинсон, Ужасы, фантастика, триллер, 2012) [BDRip-A ...
  • Порочные игры / Stoker (Пак Чхан Ук, Триллер, драма, детектив, 2013) [BDRip ...
  • Порочные игры / Stoker (Пак Чхан Ук, Триллер, драма, детектив, 2013) [BDRip ...
  • Фантомы / Shutter (Масаюки Очиай, ужасы, триллер, детектив, 2008) [BDRip-AV ...
  • Поймай толстуху, если сможешь [Театральная версия] / Identity Thief [Theatr ...
  • Рикошет / Ricochet (Ник Гомез, драма, детектив, 2011) [BDRip-AVC, Профессио ...
  • Ворон / The Raven (Джеймс МакТиг, Триллер, детектив, 2012) [BDRip 1080p, Ду ...
  • Мама / Mama (Андрес Мускетти, ужасы, фэнтези, триллер, 2013) [BDRip-AVC, Пр ...
  • Пакт / The Pact Николас МакКарти, ужасы, триллер, детектив, 2012) [BDRemux ...
  • Пакт / The Pact (Николас МакКарти, ужасы, триллер, детектив, 2012) [HDRip, ...
  • Суррогат / The Sessions (Бен Луин, Драма, 2012) [BDRip-AVC, Профессиональны ...
  • Поворот не туда 5 / Wrong Turn 5 (Деклан О’Брайэн, ужасы, триллер, 2012) [B ...
  • Информация
    Посетители, находящиеся в группе Гости, не могут оставлять комментарии к данной публикации.