вход на сайт

Имя пользователя :
Пароль :

Восстановление пароля Регистрация
Смерть Яна / The Deaths of Ian Stone (Дарио Ди Пиана, ужасы, триллер, 2007) [DVDRip, Профессиональный (многоголосый закадровый)]
Рейтинг:
(голосов: 1)



[img]{THEME}/images/logopost.png[/img]



Смерти Яна Стоуна / The Deaths of Ian Stone

Год выпуска: 2007
Страна: США , Великобритания.
Производство: Paramount Picture
Жанр: мистика, ужасы, триллер, драма.

Режиссёр: Дарио Ди Пиана
В ролях: Майк Фогель, Ямес Бартле, Андрю Бучан, Кристина Коул, Майкл Диксон, Джейсон Дюрран, Майкл Фист, Джейм Мюррэй, Билл Нэш, Джефф Петерсон

Перевод: Профессиональный (многоголосый закадровый)
Субтитры: нет

Описание: Простой американский парень Йен Стоун работал как все и отдыхал как все, не особо утруждал себя воспоминаниями о прошлом или размышлениями о будущем. Любил играть в хоккей… Но однажды Йен стал жертвой страшного и непонятного несчастного случая, в результате которого… погиб! Но «не навсегда»…

Утром он опять был жив! Стоун проснулся и пошел на работу. Вокруг него были и знакомые, и незнакомые лица. Рядом с ним опять была подружка. Только не та, что раньше, а другая… И когда этот день новой жизни Стоуна подходил к концу, с ним снова случилась трагедия…



Качество: DVDRip| Cэмпл
Продолжительность: 01:23:44

Формат: AVI
Видео кодек: XviD
Аудио кодек: AС3
Видео: 720x512, 1876 Kb/s (1.33:1), 25 fps, DivX Codec 5.2.1 build 1328 ~1876 kbps avg, 0.204 bit/pixel
Аудио: 48 kHz, AC3, 3/2 ch (L C R, Surround: L R, LFE), ~448.00 kbps avg
"Mediainfo" ▼
General
Format : AVI
Format/Info : Audio Video Interleave
File size : 1.37 GiB
Duration : 1h 23mn
Overall bit rate : 2 334 Kbps
Writing library : VirtualDub-MPEG2 build 24600/release
Video #0
ID : 0
Format : MPEG-4 Visual
Format profile : [email protected]
Format settings, BVOP : Yes
Format settings, QPel : No
Format settings, GMC : No warppoints
Format settings, Matrix : Default (MPEG)
Muxing mode : Packed bitstream
Codec ID : XVID
Codec ID/Hint : XviD
Duration : 1h 23mn
Bit rate : 1 876 Kbps
Width : 720 pixels
Height : 512 pixels
Display aspect ratio : 1.406
Frame rate : 25.000 fps
Resolution : 24 bits
Colorimetry : 4:2:0
Scan type : Progressive
Bits/(Pixel*Frame) : 0.204
Stream size : 1.10 GiB (80%)
Writing library : XviD 1.2.0.dev47 (UTC 2006-11-01)
Audio #1
ID : 1
Format : AC-3
Format/Info : Audio Coding 3
Codec ID : 2000
Duration : 1h 23mn
Bit rate mode : Constant
Bit rate : 448 Kbps
Channel(s) : 6 channels
Channel positions : Front: L C R, Surround: L R, LFE
Sampling rate : 48.0 KHz
Stream size : 268 MiB (19%)
Alignment : Aligned on interleaves
Interleave, duration : 40 ms (1.00 video frame)
Interleave, prel
ea3b4589579f5722e0a2d0a563c5711a823d85dbСмерть Яна / The Deaths of Ian Stone (Дарио Ди Пиана, ужасы, триллер, 2007) [DVDRip, Профессиональный (многоголосый закадровый)] Смерть Яна / The Deaths of Ian Stone (Дарио Ди Пиана, ужасы, триллер, 2007) [DVDRip, Профессиональный (многоголосый закадровый)] " />

Аплоадер: Админ, дата: 10-05-2013, 23:40, торрент скачан: 359 раз

Понравилась раздача? Посмотрите эти:
  • Обнаженный страх / Naked Fear (Том Эберхардт, ужасы, триллер, 2007) [HDRip, ...
  • Орудие смерти / A-i-deul... (Ли Гю Ман, Триллер, криминал, 2011) [DVDRip, П ...
  • Ночь тамплиера / Night of the Templar (Пол Сэмпсон, Ужасы, фантастика, боев ...
  • Оленья тропа / Deer Crossing (Кристиан Грилло, Ужасы, Триллер, Драма, Крими ...
  • Татуировщик / The Tattooist (Питер Бюргер, Ужасы, Триллер, 2007) [HDRip, Пр ...
  • Проклятая / The New Daughter (Луисо Бердейо, Ужасы, Триллер, 2009) [DVDRip, ...
  • Укушенный (Полная версия) / Bitten (Unrated) (Харви Глейзер , Ужасы, комеди ...
  • Любит - не любит... / Homecoming (Морган Дж. Фриман, триллер, 2009) [DVDRip ...
  • Остановка / Rest Stop: Dead Ahead (Джон Шибан, ужасы, триллер, 2006) [HDRip ...
  • Смерть.com / iMurders (Робби Брайан, Ужасы, Триллер, Драма, Криминал, Дете ...
  • Демон возмездия / Cry of the Winged Serpent (Джим Уайнорски, Ужасы, 2007) [ ...
  • Проклятый дом / The Killing Floor (Гидеон Рафф, Ужасы, Триллер, Мелодрама, ...
  • Ночь вампиров / The Forsaken (Дж.С. Кардоне , Ужасы, Триллер, 2001) [DVDRip ...
  • Гнев призрака / Headhunter (Пол Тарантино, ужасы, триллер, 2005) [DVDRip, П ...
  • Битва в пустыне / The Objective (Дэниэл Мирик, ужасы, фантастика, триллер, ...
  • Война динозавров / D-War (Хен Рэ Сим / Hyung-rae Shim, фэнтези, ужасы, боев ...
  • Человек-мотылек / Mothman (Шелдон Уилсон, Ужасы, Фантастика,Триллер, 2010) ...
  • Полусвет / Half Light (Крэйг Розенберг, Ужасы, триллер, драма, детектив, 20 ...
  • Пропавшие / Gone (Ринган Ледвидж, ужасы, триллер, драма, 2007) [DVDRip, Пр ...
  • Инкубус / Inkubus (Гленн Чиано, Ужасы, 2011) [DVDRip, Профессиональный (мно ...
  • Глушь / Resurrection County (Matt Zettell, ужасы, триллер, 2008) [DVDRip, П ...
  • Кнопка тревоги / Panic Button (Крис Кроу, ужасы, триллер, 2011) [HDRip, Про ...
  • Искажение / Skew (Сейв Челенз, ужасы, триллер, 2011) [HDRip, Профессиональн ...
  • Татуировщик / The Tattooist (Питер Бюргер, ужасы, триллер, 2007) [HDRip, Пр ...
  • Заражение: Вирус смерти / Dead & Deader (Патрик Динхат, ужасы, фантастика, ...
  • Информация
    Посетители, находящиеся в группе Гости, не могут оставлять комментарии к данной публикации.