вход на сайт

Имя пользователя :
Пароль :

Восстановление пароля Регистрация
Палата / The Ward (Джон Карпентер, Ужасы, триллер, 2010) [BDRip-AVC, Профессиональный (полное дублирование), Оригинал (английский), Sub]
Рейтинг:
(голосов: 1)



[img]{THEME}/images/logopost.png[/img]



Палата / The Ward
«Only Sanity Can Keep You Alive»

Год выпуска: 2010
Страна: США
Производство: FilmNation Entertainment, Modern Videofilm Inc., North by Northwest Entertainment, Premiere Picture
Жанр: Ужасы, триллер

Режиссёр: Джон Карпентер
В ролях: Эмбер Хёрд, Мэми Гаммер, Даниэль Панабэйкер, Лора Ли, Линдси Фонсека, Джаред Харрис, Сали Сейлер, Сузанна Берни, Дэн Андерсон, Шон Кук

Перевод: Профессиональный (полное дублирование), Оригинал (английский)
Субтитры: русские, английские

Описание: Кристен проходит лечение в психиатрической лечебнице. Вместе с ней проходят лечение еще четыре девушки. По ночам, когда больница погружается во тьму, она слышит странные пугающие звуки и понимает, что они тут не одни. Одна за другой девушки начинают исчезать, и Кристен понимает, что должна как можно скорее выбраться отсюда. Пытаясь сбежать, она понимает, что истинная природа звуков намного ужаснее, чем могло показаться вначале.



Качество: BDRip-AVC
Продолжительность: 01:28:55 час.

Формат: MKV
Видео кодек: AVC
Аудио кодек: AC3
Видео: 1024x436 (2.35:1), 23.976 fps, Advanced Video Codec ~2547 kbps avg, 0.238 bit/pixel
Аудио #1: 48 kHz, AC3 Dolby Digital, 3/2 (L,C,R,l,r) + LFE ch, ~384.00 kbps avg - (Dub)
Аудио #2: 48 kHz, AC3 Dolby Digital, 3/2 (L,C,R,l,r) + LFE ch, ~384.00 kbps avg - (Original)

Дата премьеры (мир): 13 сентября 2010
Дата премьеры (РФ): 16 июня 2011, «Каскад»

MediaInfo | x264 log ▼x264 log ▼x264 [info]: frame I:1155 Avg QP:15.72 size: 71973
x264 [info]: frame P:25751 Avg QP:18.90 size: 25632
x264 [info]: frame B:101016 Avg QP:20.84 size: 9452Format : Matroska
Format version : Version 2
File size : 2.06 GiB
Duration : 1h 28mn
Overall bit rate : 3 316 Kbps
Encoded date : UTC 2013-07-15 15:49:01
Writing application : mkvmerge v6.2.0 (Promised Land) built on Apr 28 2013 12:22:01
Writing library : libebml v1.3.0 + libmatroska v1.4.0

Video
ID : 1
Format : AVC
Format/Info : Advanced Video Codec
Format profile : [email protected]
Format settings, CABAC : Yes
Format settings, ReFrames : 10 frames
Codec ID : V_MPEG4/ISO/AVC
Duration : 1h 28mn
Bit rate : 2 547 Kbps
Width : 1 024 pixels
Height : 436 pixels
Display aspect ratio : 2.35:1
Frame rate mode : Constant
Frame rate : 23.976 fps
Color space : YUV
Chroma subsampling : 4:2:0
Bit depth : 8 bits
Scan type : Progressive
Bits/(Pixel*Frame) : 0.238
Stream size : 1.54 GiB (75%)
Title : F-HD
Writing library : x264 core 129 r2245+704+35 dbbd7a1 tMod [[email protected]:2:0 X86_64]
Encoding settings : cabac=1 / ref=10 / deblock=1:-2:-2 / analyse=0x3:0x133 / me=tesa / subme=11 / psy=1 / fade_compensate=0.00 / psy_rd=1.00:0.15 / mixed_ref=1 / me_range=32 / chroma_me=1 / trellis=2 / 8x8dct=1 / cqm=0 / deadzone=21,11 / fast_pskip=0 / chroma_qp_offset=-3 / threads=4 / lookahead_threads=1 / sliced_threads=0 / nr=0 / decimate=1 / interlaced=0 / bluray_compat=0 / constrained_intra=0 / fgo=0 / bframes=10 / b_pyramid=2 / b_adapt=2 / b_bias=0 / direct=2 / weightb=1 / open_gop=1 / weightp=2 / keyint=240 / keyint_min=23 / scenecut=40 / intra_refresh=0 / rc_lookahead=50 / rc=2pass / mbtree=1 / bitrate=2547 / ratetol=1.0 / qcomp=0.60 / qpmin=0 / qpmax=69 / qpstep=4 / cplxblur=20.0 / qblur=0.5 / vbv_maxrate=40000 / vbv_bufsize=40000 / nal_hrd=none / ip_ratio=1.40 / aq=1:0.90
Language : English
Default : Yes
Forced : No

Audio #1
ID : 2
Format : AC-3
Format/Info : Audio Coding 3
Mode extension : CM (complete main)
Format settings, Endianness : Big
Codec ID : A_AC3
Duration : 1h 28mn
Bit rate mode : Constant
Bit rate : 384 Kbps
Channel(s) : 6 channels
Channel positions : Front: L C R, Side: L R, LFE
Sampling rate : 48.0 KHz
Bit depth : 16 bits
Compression mode : Lossy
Stream size : 244 MiB (12%)
Language : Russian
Default : Yes
Forced : No

Audio #2
ID : 3
Format : AC-3
Format/Info : Audio Coding 3
Mode extension : CM (complete main)
Format settings, Endianness : Big
Codec ID : A_AC3
Duration : 1h 28mn
Bit rate mode : Constant
Bit rate : 3
5ff20b4306072a5b32380a25718e73e12dc5f86aПалата / The Ward (Джон Карпентер, Ужасы, триллер, 2010) [BDRip-AVC, Профессиональный (полное дублирование), Оригинал (английский), Sub] Палата / The Ward (Джон Карпентер, Ужасы, триллер, 2010) [BDRip-AVC, Профессиональный (полное дублирование), Оригинал (английский), Sub] " />

Аплоадер: Админ, дата: 8-08-2013, 14:25, торрент скачан: 359 раз

Понравилась раздача? Посмотрите эти:
  • Пастырь / Priest (Скотт Чарльз Стюарт, ужасы, фантастика, боевик, триллер, ...
  • Иллюзия обмана / Now You See Me [Theatrical Cut] (Луи Летерье / Louis Leter ...
  • Четвертый вид / The Fourth Kind (Олатунде Осунсанми, ужасы, фантастика, 200 ...
  • Соучастник / Collateral (Майкл Манн, Триллер, драма, криминал, 2004) [BDRip ...
  • UFC The Ultimate 100 Knockouts - PPV [MMA,2013, HDTVRip 720p]
  • Жизнь Пи / Life Of Pi (Энг Ли, Драма, приключения, 2012) [BDRip 1080p, Проф ...
  • Сайлент Хилл 2 / Silent Hill: Revelation 3D (Майкл Дж. Бассетт, ужасы, трил ...
  • Палата / The Ward (Джон Карпентер / John Carpenter, ужасы, триллер, 2010) [ ...
  • Голодный кролик атакует / Seeking Justice (Роджер Дональдсон / Roger Donald ...
  • Фантомы / Shutter (Масаюки Очиай, ужасы, триллер, детектив, 2008) [BDRip-AV ...
  • Коллекционер 2 / The Collection (Маркус Данстэн, ужасы, боевик, триллер , 2 ...
  • Палата / The Ward (Джон Карпентер , ужасы, триллер, 2010) [BDRip 720p, Пр ...
  • Значит, война / This Means War (МакДжи, боевик, мелодрама, комедия, 2012) [ ...
  • Цунами 3D / Bait (Кимбл Рендалл, Ужасы, боевик, триллер, 2011) [BDRip 720p ...
  • Явление / The Apparition (Тодд Линкольн, Ужасы, триллер, 2012) [BDRip 720p, ...
  • Mylene Farmer / Du Temps [2011, Pop, HDTVRip]
  • Палата / The Ward (Джон Карпентер / John Carpenter, ужасы, триллер, 2010) [ ...
  • Палата / The Ward (Джон Карпентер / John Carpenter, ужасы, триллер, 2010) [ ...
  • Палата / The Ward (Джон Карпентер, ужасы, триллер, 2010) [BDRip, Дублирован ...
  • Палата / The Ward (Джон Карпентер, ужасы, триллер, 2010) [BDRemux 1080p, Пр ...
  • Информация
    Посетители, находящиеся в группе Гости, не могут оставлять комментарии к данной публикации.