вход на сайт

Имя пользователя :
Пароль :

Восстановление пароля Регистрация
Фантомы / Shutter (Масаюки Очиай, ужасы, триллер, детектив, 2008) [BDRip-AVC, Профессиональный (полное дублирование) + Оригинал (английский) + Субтитры]
Рейтинг:
(голосов: 1)



[img]{THEME}/images/logopost.png[/img]



Фантомы / Shutter

Год выпуска: 2008
Страна: США
Производство: New Regency Pictures, Ozla Pictures, Regency Enterprises, Vertigo Entertainment
Жанр: ужасы, триллер, детектив

Режиссёр: Масаюки Очиай
В ролях: Джошуа Джексон, Рэйчел Тейлор, Мегуми Окина, Дэвид Денман, Джон Хенсли, Майя Хазен, Джеймс Кайсон Ли, Йошико Миядзаки, Кеи Ямамото, Дэйзи Беттс

Перевод: Профессиональный (полное дублирование) + Оригинал (английский)
Субтитры: Русские, (полные, форсированные), Английские

Описание: Проявляя фотографии после несчастного случая, пара молодоженов обнаруживает на них пугающие призрачные фигуры. Опасаясь, что все это может быть взаимосвязано, супруги пытаются выяснить природу этих явлений и понимают, что лучше бы они не лезли в эти тайны.

Релиз от



Качество: BDRip-AVC (Исходник: BD-Remux 1080p)
Продолжительность: 01:29:37

Формат: MKV
Видео кодек: x264
Аудио кодек: AC3
Видео: 960x520 (1,85:1), 23,976 fps, x264, 2724 Кbps, 0.228 bit/pixel
Аудио#1: 48 kHz, AC3 Dolby Digital, 3/2 (L,C,R,l,r) + LFE ch, 384.00 kbps - RUS
Аудио#2: 48 kHz, AC3 Dolby Digital, 3/2 (L,C,R,l,r) + LFE ch, 384.00 kbps - ENG


"MediaInfo" ▼
Общее
Уникальный идентификатор : 212651523110545979929573103020319536274 (0x9FFB31904823BEA5B4BC491C1A9D7492)
Полное имя : Fantomy.2008.D.BDRip.x264.potroks.mkv
Формат : Matroska
Версия формата : Version 4 / Version 2
Размер файла : 2,18 Гбайт
Продолжительность : 1 ч. 29 м.
Общий поток : 3490 Кбит/сек
Название фильма : -=POTROKS=-
Дата кодирования : UTC 2013-07-13 04:11:23
Программа кодирования : mkvmerge v5.9.0 (On The Loose) built on Dec 15 2012 16:39:58
Библиотека кодирования : libebml v1.3.0 + libmatroska v1.4.0

Видео
Идентификатор : 1
Формат : AVC
Формат/Информация : Advanced Video Codec
Профиль формата : [email protected]
Параметр CABAC формата : Да
Параметр ReFrames формата : 9 кадров
Идентификатор кодека : V_MPEG4/ISO/AVC
Продолжительность : 1 ч. 29 м.
Битрейт : 2724 Кбит/сек
Ширина : 960 пикселей
Высота : 520 пикселей
Соотношение сторон : 1,85:1
Режим частоты кадров : Постоянный
Частота кадров : 23,976 кадра/сек
Цветовое пространство : YUV
Субдискретизация насыщенности : 4:2:0
Битовая глубина : 8 бит
Тип развёртки : Прогрессивная
Бит/(Пиксели*Кадры) : 0.228
Размер потока : 1,66 Гбайт (76%)
Заголовок : Shutter
Библиотека кодирования : x264 core 125 r2208 d9d2288
Настройки программы : cabac=1 / ref=9 / deblock=1:-3:-3 / analyse=0x3:0x133 / me=umh / subme=11 / psy=1 / psy_rd=0.99:0.00 / mixed_ref=1 / me_range=32 / chroma_me=1 / trellis=2 / 8x8dct=1 / cqm=0 / deadzone=21,11 / fast_pskip=0 / chroma_qp_offset=-2 / threads=9 / lookahead_threads=1 / sliced_threads=0 / nr=0 / decimate=1 / interlaced=0 / bluray_compat=0 / constrained_intra=0 / bframes=10 / b_pyramid=2 / b_adapt=2 / b_bias=0 / direct=3 / weightb=1 / open_gop=0 / weightp=2 / keyint=240 / keyint_min=23 / scenecut=40 / intra_refresh=0 / rc_lookahead=150 / rc=2pass / mbtree=1 / bitrate=2724 / ratetol=1.0 / qcomp=0.70 / qpmin=0 / qpmax=69 / qpstep=4 / cplxblur=20.0 / qblur=0.5 / vbv_maxrate=20000 / vbv_bufsize=20000 / nal_hrd=none / ip_ratio=1.35 / aq=1:0.90
Язык : English
Default : Да
Forced : Нет

Аудио #1
Идентификатор : 2
Формат : AC-3
Формат/Информация : Audio Coding 3
Расширение режима : CM (complete main)
Параметр Endianness формата : Big
Идентификатор кодека : A_AC3
Продолжительность : 1 ч. 29 м.
Вид битрейта : Постоянный
Битрейт : 384 Кбит/сек
Каналы : 6 каналов
Расположение каналов : Front: L C R, Side: L R, LFE
Частота : 48,0 КГц
Битовая глубина : 16 бит
Метод сжатия : С потерями
Размер потока : 246 Мбайт (11%)
Заголовок : Dub | DD 5.1 @ 384 kbps
Язык : Russian
Default : Да
Forced : Да

Аудио #2
Идентификатор : 3
Формат : AC-3
Формат/Информация : Audio Coding 3
Расширение режима : CM (complete main)
Параметр Endianness формата : Big
Идентификатор кодека : A_AC3
Продолжительность : 1
eabb01582f6357c6ec79405073e9ae569fa7b066Фантомы / Shutter (Масаюки Очиай, ужасы, триллер, детектив, 2008) [BDRip-AVC, Профессиональный (полное дублирование) + Оригинал (английский) + Субтитры] Фантомы / Shutter (Масаюки Очиай, ужасы, триллер, детектив, 2008) [BDRip-AVC, Профессиональный (полное дублирование) + Оригинал (английский) + Субтитры] " />

Аплоадер: Админ, дата: 13-07-2013, 22:21, торрент скачан: 359 раз

Понравилась раздача? Посмотрите эти:
  • Одноклассники 2 / Grown Ups 2 (Деннис Дуган, Комедия, 2013) [BDRip-AVC, Про ...
  • Погнали! / Getaway (Кортни Соломон, боевик, криминал, 2013) [BDRip-AVC, Про ...
  • Изоляция / Isolation (Билли О`Брайэн, ужасы, триллер, 2005) [BDRip-AVC, Про ...
  • Война миров Z / World War Z [Theatrical Cut] (Марк Форстер, ужасы, фантасти ...
  • Охотники на ведьм [Театральная версия] / Hansel & Gretel: Witch Hunters [Th ...
  • Стукач / Snitch (Рик Роман Во, Триллер, драма, 2013) [BDRip-AVC, Дубляж, Ор ...
  • Никто не выжил / No One Lives (Рюхэй Китамура, Триллер, ужасы, 2012) [BDRip ...
  • Кровь / Blood (Ник Мерфи, Триллер, детектив, 2012) [BDRip-AVC, Профессионал ...
  • Летучий отряд Скотланд-Ярда / The Sweeney (Ник Лав, Боевик, драма, криминал ...
  • Вампирша / Rise (Себастьян Гутиеррес, ужасы, боевик, триллер, детектив, 200 ...
  • Сделка с дьяволом / The Covenant (Ренни Харлин, ужасы, фэнтези, боевик, три ...
  • Сафо / Sappho (Роберт Кромби /Robert Crombie, Драма, мелодрама, 2008) [BDRi ...
  • Залив / The Bay (Барри Левинсон, Ужасы, фантастика, триллер, 2012) [BDRip-A ...
  • Порочные игры / Stoker (Пак Чхан Ук, Триллер, драма, детектив, 2013) [BDRip ...
  • Порочные игры / Stoker (Пак Чхан Ук, Триллер, драма, детектив, 2013) [BDRip ...
  • Поймай толстуху, если сможешь [Театральная версия] / Identity Thief [Theatr ...
  • Ворон / The Raven (Джеймс МакТиг, Триллер, детектив, 2012) [BDRip 1080p, Ду ...
  • Мама / Mama (Андрес Мускетти, ужасы, фэнтези, триллер, 2013) [BDRip-AVC, Пр ...
  • Начало времен / Year One (Харольд Рэмис, Фантастика, комедия, приключения, ...
  • Возвращение героя / The Last Stand (Ким Чжи Ун, боевик, триллер, криминал, ...
  • Пакт / The Pact (Николас МакКарти, ужасы, триллер, детектив, 2012) [BDRip-A ...
  • Фантомы / Shutter [UNRATED] (Масаюки Отиай, ужасы, триллер, детектив, 2008 ...
  • Фантомы / Shutter (Масаюки Очиай, ужасы, триллер, детектив, 2008) [BDRip-AV ...
  • Фантомы / Shutter (Масаюки Очиай / Masayuki Ochiai, ужасы, триллер, детекти ...
  • Фантомы / Shutter (Масаюки Очиай, ужасы, триллер, детектив , 2008) [BDRip, ...
  • Информация
    Посетители, находящиеся в группе Гости, не могут оставлять комментарии к данной публикации.