вход на сайт

Имя пользователя :
Пароль :

Восстановление пароля Регистрация
Вампирская сага / True Bloodthirst (Тодор Чапканов, Ужасы,Фантастика,Боевик, 2012) [HDRip, Профессиональный (многоголосный)]
Рейтинг:
(голосов: 1)



[img]{THEME}/images/logopost.png[/img]



Вампирская сага / True Bloodthirst
------



Год выпуска: 2012
Страна: США
Производство: UFO International Productions
Жанр: Ужасы,Фантастика,Боевик

Режиссер: Тодор Чапканов
В ролях: Бен Ламберт, Ивэн Бэйли, Клаудия Бассолс, Роурк Критчлоу, Нил Джексон, Илиана Лазарова, Димитар Огринов, Эндрю Ли Поттс, Хейда Рид, Георг Златарев и др.

Перевод: Профессиональный (многоголосный)
Субтитры: Отсутствуют

Описание: Бухарест, Румыния. Не слишком отдаленное будущее, но полностью другой город. Население сокращается. Население вампиров, тем временем, растет взрывными темпами. Появившись из теней десятилетием ранее, вампиры теперь живут не прячась среди людей, поскольку сомнительный мир существует между ними. Мир сделал возможным введение синтетического заменителя крови, созданного румынским правительством, делая традиционного вампира, питающегося, и охотящегося на людей, лучше остальных. Но даже в этом случае, это не мир, которым все полностью довольны…



Премьера (мир): 14 июля 2012, ...

МедиаИнфо ▼Text

D:Vampirskaja saga.2012.P.HDRip.avi
General
Complete name : D:Vampirskaja saga.2012.P.HDRip.avi
Format : AVI
Format/Info : Audio Video Interleave
File size : 1.46 GiB
Duration : 1h 25mn
Overall bit rate : 2 448 Kbps
Writing application : VirtualDubMod 1.5.10.3 | www.virtualdub-fr.org || (build 2550/release)
Writing library : VirtualDubMod build 2550/release
Video #0
ID : 0
Format : MPEG-4 Visual
Format profile : Advanced [email protected]
Format settings, BVOP : Yes
Format settings, QPel : No
Format settings, GMC : No warppoints
Format settings, Matrix : Default (H.263)
Codec ID : XVID
Codec ID/Hint : XviD
Duration : 1h 25mn
Bit rate : 2 055 Kbps
Width : 720 pixels
Height : 400 pixels
Display aspect ratio : 16:9
Frame rate : 24.000 fps
Color space : YUV
Chroma subsampling : 4:2:0
Bit depth : 8 bits
Scan type : Progressive
Compression mode : Lossy
Bits/(Pixel*Frame) : 0.297
Stream size : 1.22 GiB (84%)
Writing library : XviD 1.2.1 (UTC 2008-12-04)
Audio #1
ID : 1
Format : AC-3
Format/Info : Audio Coding 3
Mode extension : CM (complete main)
Codec ID : 2000
Duration : 1h 25mn
Bit rate mode : Constant
Bit rate : 384 Kbps
Channel(s) : 6 channels
Channel positions : Front: L C R, Side: L R, LFE
Sampling rate : 48.0 KHz
Bit depth : 16 bits
Compression mode : Lossy
Stream size : 234 MiB (16%)
Alignment : Split accross interleaves
Interleave, duration : 42 ms (1.00 video frame)
Interleave, preload duration : 500 ms



Качество: HDRip
Продолжительность: 01:25:15

Формат: AVI
Видео кодек: XviD
Аудио кодек: AC3
Видео: 720x400 (1.80:1), 24.000 fps, XviD build 50 ~2054 kbps avg, 0.30 bit/pixel
Аудио: 48 kHz, AC3 Dolby Digital, 3/2 (L,C,R,l,r) + LFE ch, ~384.00 kbps avg





dad43ee76ab0bd7788edc76177764da5dd8fd2ceВампирская сага / True Bloodthirst (Тодор Чапканов, Ужасы,Фантастика,Боевик, 2012) [HDRip, Профессиональный (многоголосный)] Вампирская сага / True Bloodthirst (Тодор Чапканов, Ужасы,Фантастика,Боевик, 2012) [HDRip, Профессиональный (многоголосный)] " />

Аплоадер: Админ, дата: 8-07-2013, 20:19, торрент скачан: 359 раз

Понравилась раздача? Посмотрите эти:
  • Готовые на всё / Workers - Pronti a tutto (Лоренцо Виньоло, Комедия, 2012) ...
  • Погнали! / Getaway (Кортни Соломон, Боевик, Криминал, 2013) [HDRip, Професс ...
  • Вирус / Flu (Ким Сон Су, Драма, 2013) [HDTVRip, Любительский (двухголосый з ...
  • Марафон / De Marathon (Дидрик Копал, комедия, спорт, 2012) [HDRip, Професси ...
  • Марафон / De Marathon (Дидрик Копал, комедия, спорт, 2012) [HDRip, Професси ...
  • Верное дельце / Une pure affaire (Александр Коффре, Боевик, Комедия, Кримин ...
  • Мои герои / Mes heros (Эрик Беснард, комедия, 2012) [HDRip, Профессиональны ...
  • Кодовое имя «Джеронимо» / Seal Team Six: The Raid on Osama Bin Laden (Джон ...
  • Мужество / Wymyk (Грег Зглински, драма, 2011) [DVDRip, Любительский (одного ...
  • Ночь тамплиера / Night of the Templar (Пол Сэмпсон, Ужасы, фантастика, боев ...
  • Звук моего голоса / Sound of My Voice (Зал Батманглидж, триллер, драма, 201 ...
  • Слепой поворот / Blind Turn (Роберт Орр, Триллер, драма, детектив, 2012) [W ...
  • 23:59 / 23:59 (Гилберт Чан, Ужасы, 2011) [HDRip, Любительский (одноголосый ...
  • Безопасность не гарантируется / Safety Not Guaranteed (Колин Треворроу, фан ...
  • Плохая актриса / Bad Actress (Роберт Ли Кинг, комедия, 2011) [DVDRip, Профе ...
  • Супер циклон / Super Cyclone (Лиз Адамс / Liz Adams, боевик, 2012) [HDRip, ...
  • Захват / Carjacked (Джон Бонито, триллер, 2011)[BDRip, Профессиональный (мн ...
  • Tank Feat. T.I. & Kris Stephens / Compliments [2012, RnB,Hip-Hop, HDRip]
  • Битва в пустыне / The Objective (Дэниэл Мирик, ужасы, фантастика, триллер, ...
  • Замёрзший мир / 2012: Ice Age (Трэвис Форт, фантастика, боевик, 2011) [HDRi ...
  • Супершторм в Сиэтле / Seattle Superstorm (Джейсон Бурк, фантастика, боевик ...
  • Нация вампиров / True Bloodthirst (Тодор Чапканов, Фантастика, 2012) [HDTVR ...
  • Нация вампиров / True Bloodthirst (Тодор Чапканов, фантастика, 2012) [HDTVR ...
  • Искажение / Skew (Сейв Челенз, ужасы, триллер, 2011) [HDRip, Профессиональн ...
  • Нация вампиров / True Bloodthirst (Тодор Чапканов, фантастика, 2012) [DVDRi ...
  • Информация
    Посетители, находящиеся в группе Гости, не могут оставлять комментарии к данной публикации.