вход на сайт

Имя пользователя :
Пароль :

Восстановление пароля Регистрация
Зловещие мертвецы: Черная книга / Evil Dead (Федерико Альварес, ужасы, 2013) [BDRip-AVC, Авторский (Одноголосый, закадровый) Алексей Матвеев, Sub]
Рейтинг:
(голосов: 1)



[img]{THEME}/images/logopost.png[/img]



Зловещие мертвецы: Черная книга / Evil Dead

Год выпуска: 2013
Страна: США
Производство: TriStar Pictures, Ghost House Pictures, FilmDistrict
Жанр: Ужасы

Режиссёр: Федерико Альварес
В ролях:Джейн Леви, Шайло Фернандес, Лу Тэйлор Пуччи, Джессика Лукас, Элизабет Блэкмор, Феникс Коннолли, Джим МакЛарти, Сиан Дэвис, Стефен Баттерворф, Карл Виллетц

Перевод: Авторский (Одноголосый, закадровый) Алексей Матвеев
Субтитры: Русские, английские

Описание: Главный герой отвозит свою младшую сестру в лесной домик для того, чтобы помочь ей избавиться от наркотической зависимости. Оказавшись без «дури», девушка буквально сходит с ума, из-за чего становится невозможно определить, почему она ведет себя именно так: из-за ломки или же благодаря деятельности обитателей «Книги мертвых». Особенно после того, как один из ее приятелей прочел вслух отрывок из этой самой книги.Качество: BDRip-AVC / Сэмпл
Продолжительность: 01:31:06

Формат: MKV
Видео кодек: H.264
Аудио кодек: AC3
Видео: 1032x432 (2.40:1), 23,97 fps, H.264, 1841 kbps avg,0.172 bit/pixel
Аудио: 48 kHz, AC3, 6 ch, ~384.00 kbps avg
"MediaInfo" ▼Общее
Уникальный идентификатор : 190123171581813528983322551146617133030 (0x8F086413CCE0E603A963728B93FE57E6)
Полное имя : Zloveshwie.Mertvecy.Chernaja.Kniga.2013.L1.BDRip.x264.potroks..mkv
Формат : Matroska
Версия формата : Version 4 / Version 2
Размер файла : 1,42 Гбайт
Продолжительность : 1 ч. 31 м.
Общий поток : 2225 Кбит/сек
Название фильма : -=POTROKS=-
Дата кодирования : UTC 2013-07-06 12:45:50
Программа кодирования : mkvmerge v5.9.0 (On The Loose) built on Dec 15 2012 16:39:58
Библиотека кодирования : libebml v1.3.0 + libmatroska v1.4.0

Видео
Идентификатор : 1
Формат : AVC
Формат/Информация : Advanced Video Codec
Профиль формата : [email protected]
Параметр CABAC формата : Да
Параметр ReFrames формата : 10 кадров
Идентификатор кодека : V_MPEG4/ISO/AVC
Продолжительность : 1 ч. 31 м.
Битрейт : 1841 Кбит/сек
Ширина : 1032 пикселя
Высота : 432 пикселя
Соотношение сторон : 2,40:1
Режим частоты кадров : Постоянный
Частота кадров : 23,976 кадра/сек
Цветовое пространство : YUV
Субдискретизация насыщенности : 4:2:0
Битовая глубина : 8 бит
Тип развёртки : Прогрессивная
Бит/(Пиксели*Кадры) : 0.172
Размер потока : 1,15 Гбайт (81%)
Заголовок : Evil Dead
Библиотека кодирования : x264 core 125 r2208 d9d2288
Настройки программы : cabac=1 / ref=10 / deblock=1:-3:-2 / analyse=0x3:0x133 / me=umh / subme=11 / psy=1 / psy_rd=1.03:0.00 / mixed_ref=1 / me_range=48 / chroma_me=1 / trellis=2 / 8x8dct=1 / cqm=0 / deadzone=21,11 / fast_pskip=0 / chroma_qp_offset=-2 / threads=9 / lookahead_threads=1 / sliced_threads=0 / nr=0 / decimate=1 / interlaced=0 / bluray_compat=0 / constrained_intra=0 / bframes=11 / b_pyramid=2 / b_adapt=2 / b_bias=0 / direct=3 / weightb=1 / open_gop=0 / weightp=2 / keyint=240 / keyint_min=23 / scenecut=40 / intra_refresh=0 / rc_lookahead=150 / rc=2pass / mbtree=1 / bitrate=1841 / ratetol=1.0 / qcomp=0.70 / qpmin=0 / qpmax=69 / qpstep=4 / cplxblur=20.0 / qblur=0.5 / vbv_maxrate=20000 / vbv_bufsize=20000 / nal_hrd=none / ip_ratio=1.35 / aq=1:0.90
Язык : English
Default : Да
Forced : Нет

Аудио
Идентификатор : 2
Формат : AC-3
Формат/Информация : Audio Coding 3
Расширение режима : CM (complete main)
Параметр Endianness формата : Big
Идентификатор кодека : A_AC3
Продолжительность : 1 ч. 31 м.
Вид битрейта : Постоянный
Битрейт : 384 Кбит/сек
Каналы : 6 каналов
Расположение каналов : Front: L C R, Side: L R, LFE
Частота : 48,0 КГц
Битовая глубина : 16 бит
Метод сжатия : С потерями
Размер потока : 251 Мбайт (17%)
Заголовок : VO | DD 5.1 @ 384 kbps - Алексей Матвеев
Язык : Russian
Default : Да
Forced : Да

Текст #1
Идентификатор : 3
Формат : UTF-8
Идентификатор кодека : S_TEXT/UTF8
Идентификатор кодека/Информация : UTF-8 Plain Text
Язык : Engli
a598223e9f8c5b0588b282d7857e0744f87f6479Зловещие мертвецы: Черная книга / Evil Dead (Федерико Альварес, ужасы, 2013) [BDRip-AVC, Авторский (Одноголосый, закадровый) Алексей Матвеев, Sub] Зловещие мертвецы: Черная книга / Evil Dead (Федерико Альварес, ужасы, 2013) [BDRip-AVC, Авторский (Одноголосый, закадровый) Алексей Матвеев, Sub] " />

Аплоадер: Админ, дата: 6-07-2013, 20:04, торрент скачан: 359 раз

Понравилась раздача? Посмотрите эти:
  • Мальчишник: Часть III / The Hangover Part III (Тодд Филлипс, комедия, 2013) ...
  • Никто не выжил / No One Lives (Рюхэй Китамура, Триллер, ужасы, 2012) [BDRip ...
  • Зловещие мертвецы: Черная книга / Evil Dead (Федерико Альварес, ужасы, 2013 ...
  • Зловещие мертвецы: Черная книга / Evil Dead (Федерико Альварес, ужасы, 2013 ...
  • Зловещие мертвецы: Черная книга / Evil Dead (Федерико Альварес, ужасы, 2013 ...
  • Зловещие мертвецы: Черная книга / Evil Dead (Федерико Альварес, ужасы, 2013 ...
  • Зловещие мертвецы: Черная книга / Evil Dead (Федерико Альварес, ужасы, 2013 ...
  • Зловещие мертвецы: Черная книга / Evil Dead (Федерико Альварес, ужасы, 2013 ...
  • Зловещие мертвецы: Черная книга / Evil Dead (Федерико Альварес, ужасы, 2013 ...
  • Зловещие мертвецы: Черная книга / Evil Dead (Федерико Альварес, ужасы, 2013 ...
  • Зловещие мертвецы: Черная книга / Evil Dead (Федерико Альварес, ужасы, 2013 ...
  • Зловещие мертвецы: Черная книга / Evil Dead (Федерико Альварес, ужасы, 2013 ...
  • Зловещие мертвецы: Черная книга / Evil Dead (Федерико Альварес, ужасы, ...
  • Зловещие мертвецы: Черная книга / Evil Dead (Федерико Альварес, ужасы, 2013 ...
  • Зловещие мертвецы: Черная книга / Evil Dead (Федерико Альварес, ужасы, 2013 ...
  • Зловещие мертвецы: Черная книга / Evil Dead (Федерико Альварес, ужасы, 2013 ...
  • Зловещие мертвецы: Черная книга / Evil Dead (Федерико Альварес, ужасы, ...
  • Зловещие мертвецы: Черная книга / Evil Dead (Федерико Альварес, ужасы, 2013 ...
  • [iPhone, iPod, iPad] Зловещие мертвецы: Черная книга / Evil Dead (Федерико ...
  • [Трейлер] Зловещие мертвецы: Черная книга / Evil Dead (Федерико Альварес, у ...
  • Информация
    Посетители, находящиеся в группе Гости, не могут оставлять комментарии к данной публикации.