вход на сайт

Имя пользователя :
Пароль :

Восстановление пароля Регистрация
Ночь тамплиера / Night of the Templar (Пол Сэмпсон, Ужасы, фантастика, боевик, триллер, 2012 ) [HDRip, Профессиональный (многоголосый, закадровый)]
Рейтинг:
(голосов: 1)



[img]{THEME}/images/logopost.png[/img]



Ночь тамплиера / Night of the Templar

Год выпуска: 2012
Страна: США
Производство: Sampson Enterprises
Жанр: Ужасы, фантастика, боевик, триллер

Режиссёр: Пол Сэмпсон
В ролях:Пол Сэмпсон, Дэвид Кэрредин, Удо Кир, Норман Ридус, Билли Драго, Макс Перлих, Ник Джеймисон, Джек Доннер, Ингрид Сонрэй, Лиза Глив

Перевод: Профессиональный (многоголосый, закадровый)
Субтитры: нет

Описание: Средневековый рыцарь возрождается из мертвых после семисотлетнего отсутствия с желанием выполнить свою клятву: он жаждет кровопролития и мести тем, кто предал его в прошлом. В течение ночи обидчики будут раскрыты: они встретят свое судьбоносное возмездие...Качество: HDRip / Сэмпл
Продолжительность: 01:26:06

Формат: AVI
Видео кодек: XviD
Аудио кодек: AC3
Видео: 720x384 (1.875:1), 23,97 fps, XviD, 1851 kbps avg,0.279 bit/pixel
Аудио: 48 kHz, AC3, 2 ch, ~192.00 kbps avg
"MediaInfo" ▼General
Complete name : G:Noch.tampliera.2012.P_HDRip.avi
Format : AVI
Format/Info : Audio Video Interleave
File size : 1.46 GiB
Duration : 1h 41mn
Overall bit rate : 2 052 Kbps
Writing application : VirtualDubMod 1.5.10.2 (build 2540/release)
Writing library : VirtualDubMod build 2540/release

Video
ID : 0
Format : MPEG-4 Visual
Format profile : Advanced [email protected]
Format settings, BVOP : 2
Format settings, QPel : No
Format settings, GMC : No warppoints
Format settings, Matrix : Default (MPEG)
Codec ID : XVID
Codec ID/Hint : XviD
Duration : 1h 41mn
Bit rate : 1 851 Kbps
Width : 720 pixels
Height : 384 pixels
Display aspect ratio : 1.875
Frame rate : 23.976 fps
Color space : YUV
Chroma subsampling : 4:2:0
Bit depth : 8 bits
Scan type : Progressive
Compression mode : Lossy
Bits/(Pixel*Frame) : 0.279
Stream size : 1.32 GiB (90%)
Writing library : XviD 1.2.1 (UTC 2008-12-04)

Audio
ID : 1
Format : AC-3
Format/Info : Audio Coding 3
Mode extension : CM (complete main)
Codec ID : 2000
Duration : 1h 41mn
Bit rate mode : Constant
Bit rate : 192 Kbps
Channel(s) : 2 channels
Channel positions : Front: L R
Sampling rate : 48.0 KHz
Bit depth : 16 bits
Compression mode : Lossy
Stream size : 140 MiB (9%)
Alignment : Split accross interleaves
Interleave, duration : 42 ms (1.00 video frame)
Interleave, preload duration : 500 ms

Стол заказов POWER | Отзывы | Вступление в POWER


edfe86231f0eb6f48c10867e3daacb21fae95378Ночь тамплиера / Night of the Templar (Пол Сэмпсон, Ужасы, фантастика, боевик, триллер, 2012 ) [HDRip, Профессиональный (многоголосый, закадровый)] Ночь тамплиера / Night of the Templar (Пол Сэмпсон, Ужасы, фантастика, боевик, триллер, 2012 ) [HDRip, Профессиональный (многоголосый, закадровый)] " />

Аплоадер: Админ, дата: 6-07-2013, 15:13, торрент скачан: 359 раз

Понравилась раздача? Посмотрите эти:
  • Погнали! / Getaway (Кортни Соломон, Боевик, Криминал, 2013) [HDRip, Професс ...
  • Орудие смерти / A-i-deul... (Ли Гю Ман, Триллер, криминал, 2011) [DVDRip, П ...
  • Верное дельце / Une pure affaire (Александр Коффре, Боевик, Комедия, Кримин ...
  • Мои герои / Mes heros (Эрик Беснард, комедия, 2012) [HDRip, Профессиональны ...
  • Посылка / The Package (Джесси Джонсон, боевик, 2013) [HDRip, Профессиональн ...
  • Мужество / Wymyk (Грег Зглински, драма, 2011) [DVDRip, Любительский (одного ...
  • Звук моего голоса / Sound of My Voice (Зал Батманглидж, триллер, драма, 201 ...
  • Слепой поворот / Blind Turn (Роберт Орр, Триллер, драма, детектив, 2012) [W ...
  • 23:59 / 23:59 (Гилберт Чан, Ужасы, 2011) [HDRip, Любительский (одноголосый ...
  • Безопасность не гарантируется / Safety Not Guaranteed (Колин Треворроу, фан ...
  • Псы войны / The Dogs of War (Джон Ирвин, боевик, драма, приключения, военны ...
  • Доля ангелов / The Angels Share (Кен Лоуч, драма, комедия, 2012) [HDRip, Пр ...
  • Супер циклон / Super Cyclone (Лиз Адамс / Liz Adams, боевик, 2012) [HDRip, ...
  • Захват / Carjacked (Джон Бонито, триллер, 2011)[BDRip, Профессиональный (мн ...
  • Коллекционер 2 / The Collection (Маркус Данстэн, ужасы, боевик, триллер , 2 ...
  • Tank Feat. T.I. & Kris Stephens / Compliments [2012, RnB,Hip-Hop, HDRip]
  • Битва в пустыне / The Objective (Дэниэл Мирик, ужасы, фантастика, триллер, ...
  • Замёрзший мир / 2012: Ice Age (Трэвис Форт, фантастика, боевик, 2011) [HDRi ...
  • Супершторм в Сиэтле / Seattle Superstorm (Джейсон Бурк, фантастика, боевик ...
  • Олимпиада 2012 / Женщины, Мужчины / Плавание / Квалификация / НТВ+ [30.07.2 ...
  • Три балбеса / The Three Stooges (Бобби Фаррелли, Питер Фаррелли, Комедия, 2 ...
  • Девушки в опасности / Damsels in Distress (Уит Стиллман, драма, мелодрама, ...
  • Ночь тамплиера / Night of the Templar (Пол Сэмпсон, ужасы, фантастика, боев ...
  • Ночь тамплиера / Night of the Templar (Пол Сэмпсон, Ужасы, фантастика, боев ...
  • Искажение / Skew (Сейв Челенз, ужасы, триллер, 2011) [HDRip, Профессиональн ...
  • Информация
    Посетители, находящиеся в группе Гости, не могут оставлять комментарии к данной публикации.