вход на сайт

Имя пользователя :
Пароль :

Восстановление пароля Регистрация
Сделка с дьяволом / The Covenant (Ренни Харлин, ужасы, фэнтези, боевик, триллер, 2006) [BDRip-AVC, Профессиональный (дублированный), Оригинал (английский), Sub]
Рейтинг:
(голосов: 1)



[img]{THEME}/images/logopost.png[/img]



Сделка с дьяволом / The Covenant
«Сила магии. Магия молодости. Искушение властью.»

Год выпуска: 2006
Страна: США
Производство: Eyetronics, Lakeshore Entertainment, Sandstorm Films, Screen Gems
Жанр: ужасы, фэнтези, боевик, триллер

Режиссёр: Ренни Харлин
В ролях: Стивен Стрэйт, Себастиан Стэн, Тоби Хемигуэй, Чейс Кроуфорд, Тэйлор Китш, Мэтт Остин, Ларри Дэй, Джессика Лукас, Лора Рэмси

Перевод: Профессиональный (дублированный), Оригинал (английский)
Субтитры: Английские, английские (SDH), русские |отключаемые|

Описание: Четыре подростка, принадлежащих к древней касте людей, обладающих сверхъестесвенными способностями, должны остановить зло, которое они сами когда-то выпустили на волю. Но, чтобы успешно справиться со своей миссией, им необходимо научиться доверять друг другу.



Качество: BDRip-AVC | Сэмпл | исх.The Covenant BDRemux
Продолжительность: 01:37:07

Формат: MKV
Видео кодек: x.264
Аудио кодек: AC3
Видео: H.264, 1024x426 (2,35:1), 23,976 fps, 2456 Кbps, 0.229 bit/pixel
Аудио#1: Русский / AC3 Dolby Digital / 48 KHz / 384 kbps / 3/2 (L,C,R,l,r) + LFE ch
Аудио#2: Английский / AC3 Dolby Digital / 48 KHz / 384 kbps / 3/2 (L,C,R,l,r) + LFE ch

Премьера (мир): 8 сентября 2006
Премьера (РФ): 7 сентября 2006, «Пирамида»

Media Info ▼Общее
Уникальный идентификатор : 213374192119723432537317698792637372821 (0xA0865FE58AB83D52A82E5629BA7C9995)
Полное имя : Sdelka.s.D`avolom.2006.D.BDRip.x264.potroks.mkv
Формат : Matroska
Версия формата : Version 2
Размер файла : 2,19 Гбайт
Продолжительность : 1 ч. 37 м.
Общий поток : 3224 Кбит/сек
Название фильма : -=POTROKS=-
Дата кодирования : UTC 2013-06-26 16:51:59
Программа кодирования : mkvmerge v5.9.0 (On The Loose) built on Dec 15 2012 16:39:58
Библиотека кодирования : libebml v1.3.0 + libmatroska v1.4.0
Attachment : Yes

Видео
Идентификатор : 1
Формат : AVC
Формат/Информация : Advanced Video Codec
Профиль формата : [email protected]
Параметр CABAC формата : Да
Параметр ReFrames формата : 10 кадров
Идентификатор кодека : V_MPEG4/ISO/AVC
Продолжительность : 1 ч. 37 м.
Битрейт : 2456 Кбит/сек
Ширина : 1024 пикселя
Высота : 436 пикселей
Соотношение сторон : 2,35:1
Режим частоты кадров : Постоянный
Частота кадров : 23,976 кадра/сек
Цветовое пространство : YUV
Субдискретизация насыщенности : 4:2:0
Битовая глубина : 8 бит
Тип развёртки : Прогрессивная
Бит/(Пиксели*Кадры) : 0.229
Размер потока : 1,62 Гбайт (74%)
Заголовок : The Covenant
Библиотека кодирования : x264 core 125 r2208 d9d2288
Настройки программы : cabac=1 / ref=10 / deblock=1:-3:-2 / analyse=0x3:0x133 / me=umh / subme=11 / psy=1 / psy_rd=0.98:0.00 / mixed_ref=1 / me_range=48 / chroma_me=1 / trellis=2 / 8x8dct=1 / cqm=0 / deadzone=21,11 / fast_pskip=0 / chroma_qp_offset=-2 / threads=9 / lookahead_threads=1 / sliced_threads=0 / nr=0 / decimate=1 / interlaced=0 / bluray_compat=0 / constrained_intra=0 / bframes=11 / b_pyramid=2 / b_adapt=2 / b_bias=0 / direct=3 / weightb=1 / open_gop=0 / weightp=2 / keyint=240 / keyint_min=23 / scenecut=40 / intra_refresh=0 / rc_lookahead=150 / rc=2pass / mbtree=1 / bitrate=2456 / ratetol=1.0 / qcomp=0.70 / qpmin=0 / qpmax=69 / qpstep=4 / cplxblur=20.0 / qblur=0.5 / vbv_maxrate=20000 / vbv_bufsize=20000 / nal_hrd=none / ip_ratio=1.35 / aq=1:1.00
Язык : English
Default : Да
Forced : Нет

Аудио #1
Идентификатор : 2
Формат : AC-3
Формат/Информация : Audio Coding 3
Расширение режима : CM (complete main)
Параметр Endianness формата : Big
Идентификатор кодека : A_AC3
Продолжительность : 1 ч. 37 м.
Вид битрейта : Постоянный
Битрейт : 384 Кбит/сек
Каналы : 6 каналов
Расположение каналов : Front: L C R, Side: L R, LFE
Частота : 48,0 КГц
Битовая глубина : 16 бит
Метод сжатия : С потерями
Задержка видео : 1 с. 500 мс.
Размер потока : 267 Мбайт (12%)
Заголовок : Dub | DD 5.1 @ 384 kbps
Язык : Russian
Default : Да
Forced :
67f0e02f3c094e8da2d9cccf50ab3295caf26559Сделка с дьяволом / The Covenant (Ренни Харлин, ужасы, фэнтези, боевик, триллер, 2006) [BDRip-AVC, Профессиональный (дублированный), Оригинал (английский), Sub] Сделка с дьяволом / The Covenant (Ренни Харлин, ужасы, фэнтези, боевик, триллер, 2006) [BDRip-AVC, Профессиональный (дублированный), Оригинал (английский), Sub] " />

Аплоадер: Админ, дата: 27-06-2013, 00:59, торрент скачан: 359 раз

Понравилась раздача? Посмотрите эти:
  • Одноклассники 2 / Grown Ups 2 (Деннис Дуган, Комедия, 2013) [BDRip-AVC, Про ...
  • Погнали! / Getaway (Кортни Соломон, боевик, криминал, 2013) [BDRip-AVC, Про ...
  • Византия / Byzantium (Нил Джордан, Фэнтези, триллер, драма, 2012) [BDRip 10 ...
  • Изоляция / Isolation (Билли О`Брайэн, ужасы, триллер, 2005) [BDRip-AVC, Про ...
  • Иллюзия обмана / Now You See Me [Extended Cut] (Луи Летерье, триллер, крими ...
  • Заклятие / The Conjuring (Джеймс Ван, ужасы, триллер, 2013) [BDRip 720р, Ду ...
  • Заклятие / The Conjuring (Джеймс Ван, ужасы, триллер, 2013) [BDRip 1080p, Д ...
  • Война миров Z / World War Z [Theatrical Cut] (Марк Форстер, ужасы, фантасти ...
  • Тревожный вызов / The Call (Брэд Андерсон, Триллер, 2013) [BDRip-AVC, Профе ...
  • Никто не выжил / No One Lives (Рюхэй Китамура, Триллер, ужасы, 2012) [BDRip ...
  • Летучий отряд Скотланд-Ярда / The Sweeney (Ник Лав, Боевик, драма, криминал ...
  • Залив / The Bay (Барри Левинсон, Ужасы, фантастика, триллер, 2012) [BDRip-A ...
  • Порочные игры / Stoker (Пак Чхан Ук, Триллер, драма, детектив, 2013) [BDRip ...
  • Порочные игры / Stoker (Пак Чхан Ук, Триллер, драма, детектив, 2013) [BDRip ...
  • Фантомы / Shutter (Масаюки Очиай, ужасы, триллер, детектив, 2008) [BDRip-AV ...
  • Поймай толстуху, если сможешь [Театральная версия] / Identity Thief [Theatr ...
  • Мама / Mama (Андрес Мускетти, ужасы, фэнтези, триллер, 2013) [BDRip-AVC, Пр ...
  • Суррогат / The Sessions (Бен Луин, Драма, 2012) [BDRip-AVC, Профессиональны ...
  • [En] Сделка с дьяволом / The Covenant (Ренни Харлин, 2006 г., ужасы, трилле ...
  • Сделка с дьяволом / The Covenant (Ренни Харлин / Renny Harlin ,ужасы, боеви ...
  • Информация
    Посетители, находящиеся в группе Гости, не могут оставлять комментарии к данной публикации.